找回密码

蓝光电影网

查看: 107|回复: 0

[2160p] 身在高地[繁英字幕].In.the.Heights.2021.UHD.BluRay.2160p.TrueHD.Atmos.7.1.x265.10bit.HDR-ALT 17.54GB

[复制链接]
蓝光币
7
发表于 2022-7-29 18:46:00 | 显示全部楼层 |阅读模式


◎标  题 身在高地
◎译  名 活在上城 / 纽约高地(台) / 狂舞纽约(港)
◎片  名 In the Heights
◎年  代 2021
◎产  地 美国
◎类  别 剧情 / 恋爱 / 歌舞
◎语  言 英语 / 西班牙语
◎上映日期 2021-06-11(美国)
◎IMDb评分 7.4/10 (38468人评价)
◎IMDb链接 https://www.imdb.com/title/tt1321510/
◎豆瓣评分 7.2/10 (3293人评价)
◎豆瓣链接 https://movie.douban.com/subject/3279094/
◎片  长 143分钟
◎导  演 朱浩伟 Jon M. Chu
◎编  剧 琦亚拉·艾蕾葛莉亚·休德斯 Quiara Alegria Hudes
       林-曼努尔·米兰达 Lin-Manuel Miranda
◎演  员 安东尼·拉莫斯 Anthony Ramos
       梅丽莎·巴雷拉 Melissa Barrera
       斯蒂芬妮·比翠丝 Stephanie Beatriz
       阿丽亚娜·格林布拉特 Ariana Greenblatt
       林-曼努尔·米兰达 Lin-Manuel Miranda
       吉米·斯密茨 Jimmy Smits
       科里·霍金斯 Corey Hawkins
       达丝莎·坡兰科 Dascha Polanco
       克里斯·杰克逊 Chris Jackson
       达芬妮·鲁宾-维佳 Daphne Rubin-Vega
       马克·安东尼 Marc Anthony
       黄景伟 Alex Wong
       欧嘉·梅雷迪斯 Olga Merediz
       Valéry Lessard Valéry Lessard
       格里高利·迪亚兹四世 Gregory Diaz IV
       苏珊·波尔法 Susan Pourfar
       帕特里克·佩奇 Patrick Page
       玛莎·尼科尔斯 Martha Nichols
       阿列克莎·波勒 Alexa Poller
       詹姆斯·雷娃 James Leyva
       汤姆·伯克伦 Tom Berklund
       亚历克斯·佩雷斯 Alex Perez
       安妮·比萨比亚 Annie Pisapia
       阿尔贝托·巴斯克斯 Alberto Vazquez
       Henardo Rodriguez Henardo Rodriguez
       Keith Kuhl Keith Kuhl
       尼古拉斯·斯图尔特 Nicholas Stewart
        
       林-曼努尔·米兰达 Lin-Manuel Miranda
       Brian Goodwin  Brian Goodwin
◎标  签 音乐剧 / 美国 / 音乐 / 歌舞 / 2021 / LMM / musical / 电影
◎简  介
  报告在纽约的华盛顿高地,杂货店老板Usnavi在继续了祖母的财富后,将要关掉店肆回抵故乡多米尼加共和国过退休生活,对此他百感交集,而拉美裔社区和那边居民的吸引力让他停下来思考。影片围绕Usnavi、一位大门生、一位出租车司机、一位美容院员工和一个渴望更好生活的老太婆展开,随着中产阶级化起头扎根,闷热炎天中,一场停电让小我危机到达史无前例的高度。
  1. ##### MediaInfo ######
  2. General
  3. Unique ID                                : 50886103778459000182753160045438156002 (0x26484E9E3CCEA6DF3EA6ACEFA373BCE2)
  4. Complete name                            : In.the.Heights.2021.UHD.BluRay.2160p.TrueHD.Atmos.7.1.x265.10bit.HDR-ALT.mkv
  5. Format                                   : Matroska
  6. Format version                           : Version 4
  7. File size                                : 17.5 GiB
  8. Duration                                 : 2 h 22 min
  9. Overall bit rate mode                    : Variable
  10. Overall bit rate                         : 17.6 Mb/s
  11. Encoded date                             : UTC 2021-08-28 05:33:30
  12. Writing application                      : mkvmerge v49.0.0 ('Sick Of Losing Soulmates') 64-bit
  13. Writing library                          : libebml v1.4.0 + libmatroska v1.6.1
  14. Video
  15. ID                                       : 1
  16. Format                                   : HEVC
  17. Format/Info                              : High Efficiency Video Coding
  18. Format profile                           : Main [email protected]@High
  19. HDR format                               : SMPTE ST 2086, HDR10 compatible
  20. Codec ID                                 : V_MPEGH/ISO/HEVC
  21. Duration                                 : 2 h 22 min
  22. Bit rate                                 : 13.7 Mb/s
  23. Width                                    : 3 840 pixels
  24. Height                                   : 1 606 pixels
  25. Display aspect ratio                     : 2.40:1
  26. Frame rate mode                          : Constant
  27. Frame rate                               : 23.976 (24000/1001/53875) FPS
  28. Color space                              : YUV
  29. Chroma subsampling                       : 4:2:0 (Type 2)
  30. Bit depth                                : 10 bits
  31. Bits/(Pixel*Frame)                       : 0.093
  32. Stream size                              : 13.7 GiB (78%)
  33. Title                                    : HEVC, [email protected]@High, 24/1.001 fps @ 13699 kbps
  34. Writing library                          : x265 3.4+14-gd419c7152:[Windows][GCC 10.2.0][64 bit] 10bit
  35. Encoding settings                        : cpuid=538751111039 / frame-threads=4 / numa-pools=20 / wpp / pmode / pme / no-psnr / no-ssim / log-level=2 / input-csp=1 / input-res=3840x1606 / interlace=0 / total-frames=205693 / level-idc=51 / high-tier=1 / uhd-bd=0 / ref=4 / no-allow-non-conformance / repeat-headers / annexb / no-aud / hrd / info / hash=0 / no-temporal-layers / no-open-gop / min-keyint=24 / keyint=240 / gop-lookahead=0 / bframes=8 / b-adapt=2 / b-pyramid / bframe-bias=0 / rc-lookahead=25 / lookahead-slices=0 / NTM4NzU=uuDQuD2mJt9fsCf / scenecut=40 / hist-scenecut=0 / radl=0 / no-splice / no-intra-refresh / ctu=64 / min-cu-size=8 / no-rect / no-amp / max-tu-size=32 / tu-inter-depth=3 / tu-intra-depth=3 / limit-tu=4 / rdoq-level=2 / dynamic-rd=0.00 / no-ssim-rd / signhide / no-tskip / nr-intra=0 / nr-inter=0 / no-constrained-intra / no-strong-intra-smoothing / max-merge=4 / limit-refs=1 / limit-modes / me=3 / subme=4 / merange=25 / temporal-mvp / no-frame-dup / no-hme / weightp / weightb / no-analyze-src-pics / deblock=-3:-3 / no-sao / no-sao-non-deblock / rd=6 / selective-sao=0 / no-early-skip / rskip / no-fast-intra / no-tskip-fast / no-cu-lossless / b-intra / no-splitrd-skip / rdpenalty=0 / psy-rd=2.00 / psy-rdoq=1.00 / no-rd-refine / no-lossless / cbqpoffs=0 / crqpoffs=0 / rc=crf / crf=18.5 / qcomp=0.65 / qpstep=4 / stats-write=0 / stats-read=0 / vbv-maxrate=160000 / vbv-bufsize=160000 / vbv-init=0.9 / crf-max=0.0 / crf-min=0.0 / ipratio=1.30 / pbratio=1.20 / aq-mode=3 / aq-strength=0.85 / cutree / zone-count=0 / no-strict-cbr / qg-size=32 / no-rc-grain / qpmax=69 / qpmin=0 / no-const-vbv / sar=1 / overscan=0 / videoformat=5 / range=0 / colorprim=9 / transfer=16 / colormatrix=9 / chromaloc=1 / chromaloc-top=2 / chromaloc-bottom=2 / display-window=0 / master-display=G(13250,34500)B(7500,3000)R(34000,16000)WP(15635,16450)L(10000000,1) / cll=721,227 / min-luma=0 / max-luma=1023 / log2-max-poc-lsb=8 / vui-timing-info / vui-hrd-info / slices=1 / no-opt-qp-pps / no-opt-ref-list-length-pps / no-multi-pass-opt-rps / scenecut-bias=0.05 / hist-threshold=0.03 / no-opt-cu-delta-qp / no-aq-motion / hdr10 / hdr10-opt / no-dhdr10-opt / no-idr-recovery-sei / analysis-reuse-level=0 / analysis-save-reuse-level=0 / analysis-load-reuse-level=0 / scale-factor=0 / refine-intra=0 / refine-inter=0 / refine-mv=1 / refine-ctu-distortion=0 / no-limit-sao / ctu-info=0 / no-lowpass-dct / refine-analysis-type=0 / copy-pic=1 / max-ausize-factor=1.0 / no-dynamic-refine / no-single-sei / no-hevc-aq / no-svt / no-field / qp-adaptation-range=1.00 / no-scenecut-aware-qpconformance-window-offsets / right=0 / bottom=0 / NTM4NzU= / decoder-max-rate=0
  36. Language                                 : English
  37. Default                                  : Yes
  38. Forced                                   : No
  39. Color range                              : Limited
  40. Color primaries                          : BT.2020
  41. Transfer characteristics                 : PQ
  42. Matrix coefficients                      : BT.2020 non-constant
  43. Mastering display color primaries        : Display P3
  44. Mastering display luminance              : min: 0.0001 cd/m2, max: 1000 cd/m2
  45. Maximum Content Light Level              : 721 cd/m2
  46. Maximum Frame-Average Light Level        : 227 cd/m2
  47. Audio #1
  48. ID                                       : 2
  49. Format                                   : MLP FBA 16-ch
  50. Format/Info                              : Meridian Lossless Packing FBA with 16-channel presentation
  51. Commercial name                          : Dolby TrueHD with Dolby Atmos
  52. Codec ID                                 : A_TRUEHD
  53. Duration                                 : 2 h 22 min
  54. Bit rate mode                            : Variable
  55. Bit rate                                 : 3 224 kb/s
  56. Maximum bit rate                         : 4 650 kb/s
  57. Channel(s)                               : 8 channels
  58. Channel layout                           : L R C LFE Ls Rs Lb Rb
  59. Sampling rate                            : 48.0 kHz
  60. Frame rate                               : 1 200.000 FPS (40 SPF)
  61. Compression mode                         : Lossless
  62. Stream size                              : 3.22 GiB (18%)
  63. Title                                    : English Dolby TrueHD 7.1 (Atmos) @ 3672 kbps
  64. Language                                 : English
  65. Default                                  : Yes
  66. Forced                                   : No
  67. Number of dynamic objects                : 11
  68. Bed channel count                        : 1 channel
  69. Bed channel configuration                : LFE
  70. Audio #2
  71. ID                                       : 3
  72. Format                                   : AC-3
  73. Format/Info                              : Audio Coding 3
  74. Commercial name                          : Dolby Digital
  75. Codec ID                                 : A_AC3
  76. Duration                                 : 2 h 22 min
  77. Bit rate mode                            : Constant
  78. Bit rate                                 : 448 kb/s
  79. Channel(s)                               : 6 channels
  80. Channel layout                           : L R C LFE Ls Rs
  81. Sampling rate                            : 48.0 kHz
  82. Frame rate                               : 31.250 FPS (1536 SPF)
  83. Compression mode                         : Lossy
  84. Stream size                              : 458 MiB (3%)
  85. Title                                    : English AC3 5.1-EX @ 640 kbps
  86. Language                                 : English
  87. Service kind                             : Complete Main
  88. Default                                  : No
  89. Forced                                   : No
  90. Text #1
  91. ID                                       : 4
  92. Format                                   : PGS
  93. Codec ID                                 : S_HDMV/PGS
  94. Codec ID/Info                            : Picture based subtitle format used on BDs/HD-DVDs
  95. Duration                                 : 2 h 22 min
  96. Bit rate                                 : 45.9 kb/s
  97. Count of elements                        : 4886
  98. Stream size                              : 46.8 MiB (0%)
  99. Title                                    : Eng/SUP
  100. Language                                 : English
  101. Default                                  : No
  102. Forced                                   : No
  103. Text #2
  104. ID                                       : 5
  105. Format                                   : PGS
  106. Codec ID                                 : S_HDMV/PGS
  107. Codec ID/Info                            : Picture based subtitle format used on BDs/HD-DVDs
  108. Duration                                 : 2 h 22 min
  109. Bit rate                                 : 37.0 kb/s
  110. Count of elements                        : 4316
  111. Stream size                              : 37.7 MiB (0%)
  112. Title                                    : Cht/SUP  原盘繁体(TW)
  113. Language                                 : Chinese
  114. Default                                  : Yes
  115. Forced                                   : No
  116. Text #3
  117. ID                                       : 6
  118. Format                                   : PGS
  119. Codec ID                                 : S_HDMV/PGS
  120. Codec ID/Info                            : Picture based subtitle format used on BDs/HD-DVDs
  121. Duration                                 : 2 h 22 min
  122. Bit rate                                 : 34.1 kb/s
  123. Count of elements                        : 4464
  124. Stream size                              : 34.7 MiB (0%)
  125. Title                                    : Cht/SUP  原盘繁体(HK)
  126. Language                                 : Chinese
  127. Default                                  : No
  128. Forced                                   : No
  129. Menu
  130. 13:15:21.859                             : en:第 01 章
  131. 00:11:08.458                             : en:第 02 章
  132. 00:18:18.180                             : en:第 03 章
  133. 00:26:28.252                             : en:第 04 章
  134. 00:30:08.138                             : en:第 05 章
  135. 00:37:37.713                             : en:第 06 章
  136. 00:43:58.594                             : en:第 07 章
  137. 00:50:53.675                             : en:第 08 章
  138. 00:59:38.824                             : en:第 09 章
  139. 01:03:36.561                             : en:第 10 章
  140. 01:12:32.264                             : en:第 11 章
  141. 01:23:02.268                             : en:第 12 章
  142. 01:32:45.475                             : en:第 13 章
  143. 01:40:51.712                             : en:第 14 章
  144. 01:51:08.369                             : en:第 15 章
  145. 01:55:44.604                             : en:第 16 章
  146. 02:04:37.595                             : en:第 17 章
  147. 02:14:58.506                             : en:第 18 章
  148. 02:21:45.829                             : en:第 19 章
复制代码

















保举请利用qBittorrent,utorrent,transmission等标准BT软件下载!以获得最快速度。奉求保种!





回复

使用道具 举报

懒得打字嘛,点击右侧快捷回复 【右侧内容,后台自定义】
您需要登录后才可以回帖 登录 | 立即加入

本版积分规则

Archiver|小黑屋| 蓝光电影网 |网站地图

Copyright © 2021 Comsenz Inc. Powered by 蓝光电影网

蓝光电影网

本站内容由用户自主分享和转载自互联网,转载目的在于传递更多信息,并不代表本网赞同其观点和对其真实性负责。

如有侵权、违反国家法律政策行为,请联系我们,我们会第一时间及时清除和处理!

举报反馈邮箱:[email protected]

快速回复 返回顶部 返回列表