找回密码

蓝光电影网

查看: 259|回复: 5

[2160p] 盗梦空间[国英多音轨/简繁英字幕].Inception.2010.UHD.BluRay.2160p.2Audio.DTS-HD.MA5.1.x265.10bit.HDR-ALT 21.44GB

[复制链接]
蓝光币
8
发表于 2022-7-29 18:46:01 | 显示全部楼层 |阅读模式


◎标  题 盗梦空间
◎译  名 潜行凶间(港) / 周全启动(台) / 奠基 / 心灵犯案 / 记忆迷阵 / 记忆魔方
◎片  名 Inception
◎年  代 2010
◎产  地 美国 / 英国
◎类  别 剧情 / 科幻 / 悬疑 / 冒险
◎语  言 英语 / 日语 / 法语
◎上映日期 2010-09-01(中国大陆) / 2020-08-28(中国大陆重映) / 2010-07-16(美国)
◎IMDb评分 8.8/10 (2199693人评价)
◎IMDb链接 https://www.imdb.com/title/tt1375666/
◎豆瓣评分 9.3/10 (1804984人评价)
◎豆瓣链接 https://movie.douban.com/subject/3541415/
◎片  长 148分钟
◎导  演 克里斯托弗·诺兰 Christopher Nolan
◎编  剧 克里斯托弗·诺兰 Christopher Nolan
◎演  员 莱昂纳多·迪卡普里奥 Leonardo DiCaprio
       约瑟夫·高登-莱维特 Joseph Gordon-Levitt
       艾利奥特·佩吉 Elliot Page
       汤姆·哈迪 Tom Hardy
       渡边谦 Ken Watanabe
       迪利普·劳 Dileep Rao
       基里安·墨菲 Cillian Murphy
       汤姆·贝伦杰 Tom Berenger
       玛丽昂·歌迪亚 Marion Cotillard
       皮特·波斯尔思韦特 Pete Postlethwaite
       迈克尔·凯恩 Michael Caine
       卢卡斯·哈斯 Lukas Haas
       李太力 Tai-Li Lee
       克莱尔·吉尔蕾 Claire Geare
       马格努斯·诺兰 Magnus Nolan
       泰勒·吉蕾 Taylor Geare
       乔纳森·吉尔 Johnathan Geare
       水源士郎 Tohoru Masamune
       冈本玉二 Yuji Okumoto
       厄尔·卡梅伦 Earl Cameron
       瑞恩·海沃德 Ryan Hayward
       米兰达·诺兰 Miranda Nolan
       拉什·费加 Russ Fega
       蒂姆·科勒赫 Tim Kelleher
       妲露拉·莱莉 Talulah Riley
       迈克尔·加斯顿 Michael Gaston
       吉尔·马德雷尔 Jill Maddrell
       玛格丽特·因索利亚 Marguerite Insolia
       Natasha Beaumont Natasha Beaumont
       克里斯托弗·诺兰 Christopher Nolan
       艾玛·托马斯 Emma Thomas
       乔丹·戈登伯格 Jordan Goldberg
       托马斯·海斯利普 Thomas Hayslip
       托马斯·图尔 Thomas Tull
       汉斯·季默 Hans Zimmer
       沃利·菲斯特 Wally Pfister
       李·史姑娘 Lee Smith
       约翰·帕帕席德拉 John Papsidera
       盖·亨德里克斯·戴斯 Guy Hendrix Dyas
       卢克·弗里伯恩 Luke Freeborn
       马修·格雷 Matthew Gray
       布拉德·里奇 Brad Ricker
       德安·沃尔科特 Dean Wolcott
       拉里·迪亚斯 Larry Dias
       道格拉斯·A·莫瓦特 Douglas A. Mowat
       杰弗里·库兰 Jeffrey Kurland
       特里·马里奥特 Terry Marriott
◎标  签 科幻 / 悬疑 / 心理 / 美国 / 典范 / 剧情 / 梦 / 哲学
◎简  介
  道姆·柯布(莱昂纳多·迪卡普里奥 Leonardo DiCaprio 饰)与同事阿瑟(约瑟夫·戈登-莱维特 Joseph Gordon-Levitt 饰)和纳什(卢卡斯·哈斯 Lukas Haas 饰)在一次针对日本能源富翁齐藤(渡边谦 饰)的盗梦行动中失利,反被齐藤操纵。齐藤威胁迷惑因遭通缉而亡命外洋的柯布帮他拆分他合作对手的公司,采纳极端办法在其唯一继续人罗伯特·费希尔(希里安·墨菲 Cillian Murphy 饰)的深层潜认识中种下放弃家属公司、自立门户的想法。为了重返美国,柯布偷偷乞助于岳父迈尔斯(迈克尔·凯恩 Michael Caine 饰),吸收了年轻的梦乡设想师艾里阿德妮(艾伦·佩吉 Ellen Page 饰)、梦乡演员艾姆斯(汤姆·哈迪 Tom Hardy 饰)和药剂师约瑟夫(迪利普·劳 Dileep Rao 饰)加入行动。在一层层...
  1. ##### MediaInfo ######
  2. General
  3. Unique ID                                : 152870570464676581571650910255395996317 (0x7301CD09931DF48C5E5087267AB5829D)
  4. Complete name                            : Inception.2010.UHD.BluRay.2160p.2Audio.DTS-HD.MA5.1.x265.10bit.HDR-ALT.mkv
  5. Format                                   : Matroska
  6. Format version                           : Version 4
  7. File size                                : 21.4 GiB
  8. Duration                                 : 2 h 28 min
  9. Overall bit rate mode                    : Variable
  10. Overall bit rate                         : 20.7 Mb/s
  11. Encoded date                             : UTC 2019-10-21 02:06:07
  12. Writing application                      : mkvmerge v38.0.0 ('The Silent Type') 64-bit
  13. Writing library                          : libebml v1.3.9 + libmatroska v1.5.2
  14. Video
  15. ID                                       : 1
  16. Format                                   : HEVC
  17. Format/Info                              : High Efficiency Video Coding
  18. Format profile                           : Main [email protected]@High
  19. HDR format                               : SMPTE ST 2086, HDR10 compatible
  20. Codec ID                                 : V_MPEGH/ISO/HEVC
  21. Duration                                 : 2 h 28 min
  22. Bit rate                                 : 16.1 Mb/s
  23. Width                                    : 3 840 pixels
  24. Height                                   : 1 598 pixels
  25. Display aspect ratio                     : 2.40:1
  26. Frame rate mode                          : Constant
  27. Frame rate                               : 23.976 (24000/1001/53875) FPS
  28. Color space                              : YUV
  29. Chroma subsampling                       : 4:2:0 (Type 2)
  30. Bit depth                                : 10 bits
  31. Bits/(Pixel*Frame)                       : 0.110
  32. Stream size                              : 16.7 GiB (78%)
  33. Title                                    : HEVC, [email protected]@High, 24/1.001 fps @ 16149 kbps
  34. Writing library                          : x265 3.0_Au+4-dcbec33bfb0f:[Windows][GCC 8.2.1][64 bit] 10bit
  35. Encoding settings                        : cpuid=538751111039 / frame-threads=4 / numa-pools=16 / wpp / pmode / pme / no-psnr / no-ssim / log-level=2 / input-csp=1 / input-res=3840x1598 / interlace=0 / total-frames=213106 / level-idc=51 / high-tier=1 / uhd-bd=0 / ref=4 / no-allow-non-conformance / repeat-headers / annexb / no-aud / hrd / info / hash=0 / no-temporal-layers / no-open-gop / min-keyint=24 / keyint=240 / gop-lookahead=0 / bframes=8 / b-adapt=2 / b-pyramid / bframe-bias=0 / rc-lookahead=25 / lookahead-slices=0 / NTM4NzU=uuDQuD2mJt9fsCf / scenecut=40 / radl=0 / no-splice / no-intra-refresh / ctu=64 / min-cu-size=8 / no-rect / no-amp / max-tu-size=32 / tu-inter-depth=3 / tu-intra-depth=3 / limit-tu=4 / rdoq-level=2 / dynamic-rd=0.00 / no-ssim-rd / signhide / no-tskip / nr-intra=0 / nr-inter=0 / no-constrained-intra / no-strong-intra-smoothing / max-merge=4 / limit-refs=1 / limit-modes / me=3 / subme=4 / merange=25 / temporal-mvp / weightp / weightb / no-analyze-src-pics / deblock=-3:-3 / no-sao / no-sao-non-deblock / rd=6 / no-early-skip / rskip / no-fast-intra / no-tskip-fast / no-cu-lossless / b-intra / no-splitrd-skip / rdpenalty=0 / psy-rd=2.00 / psy-rdoq=1.00 / no-rd-refine / no-lossless / cbqpoffs=0 / crqpoffs=0 / rc=crf / crf=18.5 / qcomp=0.65 / qpstep=4 / stats-write=0 / stats-read=0 / vbv-maxrate=160000 / vbv-bufsize=160000 / vbv-init=0.9 / crf-max=0.0 / crf-min=0.0 / ipratio=1.30 / pbratio=1.20 / aq-mode=3 / aq-strength=0.85 / cutree / zone-count=0 / no-strict-cbr / qg-size=32 / no-rc-grain / qpmax=69 / qpmin=0 / no-const-vbv / sar=1 / overscan=0 / videoformat=5 / range=0 / colorprim=9 / transfer=16 / colormatrix=9 / chromaloc=1 / chromaloc-top=2 / chromaloc-bottom=2 / display-window=0 / master-display=G(13250,34500)B(7500,3000)R(34000,16000)WP(15635,16450)L(40000000,50) / max-cll=1538,308 / min-luma=0 / max-luma=1023 / log2-max-poc-lsb=8 / vui-timing-info / vui-hrd-info / slices=1 / no-opt-qp-pps / no-opt-ref-list-length-pps / no-multi-pass-opt-rps / scenecut-bias=0.05 / no-opt-cu-delta-qp / no-aq-motion / hdr / hdr-opt / no-dhdr10-opt / no-idr-recovery-sei / analysis-reuse-level=5 / scale-factor=0 / refine-intra=0 / refine-inter=0 / refine-mv=0 / refine-ctu-distortion=0 / no-limit-sao / ctu-info=0 / no-lowpass-dct / refine-analysis-type=0 / copy-pic=1 / max-ausize-factor=1.0 / no-dynamic-refine / no-single-sei / no-hevc-aq / qp-adaptation-range=1.00
  36. Language                                 : English
  37. Default                                  : Yes
  38. Forced                                   : No
  39. Color range                              : Limited
  40. Color primaries                          : BT.2020
  41. Transfer characteristics                 : PQ
  42. Matrix coefficients                      : BT.2020 non-constant
  43. Mastering display color primaries        : Display P3
  44. Mastering display luminance              : min: 0.0050 cd/m2, max: 4000 cd/m2
  45. Maximum Content Light Level              : 1538 cd/m2
  46. Maximum Frame-Average Light Level        : 308 cd/m2
  47. Audio #1
  48. ID                                       : 2
  49. Format                                   : DTS XLL
  50. Format/Info                              : Digital Theater Systems
  51. Commercial name                          : DTS-HD Master Audio
  52. Codec ID                                 : A_DTS
  53. Duration                                 : 2 h 28 min
  54. Bit rate mode                            : Variable
  55. Bit rate                                 : 3 821 kb/s
  56. Channel(s)                               : 6 channels
  57. Channel layout                           : C L R Ls Rs LFE
  58. Sampling rate                            : 48.0 kHz
  59. Frame rate                               : 93.750 FPS (512 SPF)
  60. Bit depth                                : 24 bits
  61. Compression mode                         : Lossless
  62. Stream size                              : 3.95 GiB (18%)
  63. Title                                    : English DTS-HD Master Audio 5.1 @ 3821 kbps
  64. Language                                 : English
  65. Default                                  : Yes
  66. Forced                                   : No
  67. Audio #2
  68. ID                                       : 3
  69. Format                                   : AC-3
  70. Format/Info                              : Audio Coding 3
  71. Commercial name                          : Dolby Digital
  72. Codec ID                                 : A_AC3
  73. Duration                                 : 2 h 28 min
  74. Bit rate mode                            : Constant
  75. Bit rate                                 : 640 kb/s
  76. Channel(s)                               : 6 channels
  77. Channel layout                           : L R C LFE Ls Rs
  78. Sampling rate                            : 48.0 kHz
  79. Frame rate                               : 31.250 FPS (1536 SPF)
  80. Compression mode                         : Lossy
  81. Stream size                              : 678 MiB (3%)
  82. Title                                    : Mandarin Dolby Digital Audio 5.1 @ 640 kbps 原盘国语
  83. Language                                 : Chinese
  84. Service kind                             : Complete Main
  85. Default                                  : No
  86. Forced                                   : No
  87. Text #1
  88. ID                                       : 4
  89. Format                                   : PGS
  90. Codec ID                                 : S_HDMV/PGS
  91. Codec ID/Info                            : Picture based subtitle format used on BDs/HD-DVDs
  92. Duration                                 : 2 h 27 min
  93. Bit rate                                 : 32.7 kb/s
  94. Count of elements                        : 3476
  95. Stream size                              : 34.4 MiB (0%)
  96. Title                                    : Eng/SUP
  97. Language                                 : English
  98. Default                                  : No
  99. Forced                                   : No
  100. Text #2
  101. ID                                       : 5
  102. Format                                   : PGS
  103. Codec ID                                 : S_HDMV/PGS
  104. Codec ID/Info                            : Picture based subtitle format used on BDs/HD-DVDs
  105. Duration                                 : 2 h 26 min
  106. Bit rate                                 : 27.5 kb/s
  107. Count of elements                        : 3332
  108. Stream size                              : 28.8 MiB (0%)
  109. Title                                    : Chs/SUP  原盘简体
  110. Language                                 : Chinese
  111. Default                                  : Yes
  112. Forced                                   : No
  113. Text #3
  114. ID                                       : 6
  115. Format                                   : PGS
  116. Codec ID                                 : S_HDMV/PGS
  117. Codec ID/Info                            : Picture based subtitle format used on BDs/HD-DVDs
  118. Duration                                 : 2 h 26 min
  119. Bit rate                                 : 25.2 kb/s
  120. Count of elements                        : 3593
  121. Stream size                              : 26.3 MiB (0%)
  122. Title                                    : Cht/SUP  原盘繁体(TW)
  123. Language                                 : Chinese
  124. Default                                  : No
  125. Forced                                   : No
  126. Text #4
  127. ID                                       : 7
  128. Format                                   : PGS
  129. Codec ID                                 : S_HDMV/PGS
  130. Codec ID/Info                            : Picture based subtitle format used on BDs/HD-DVDs
  131. Duration                                 : 2 h 26 min
  132. Bit rate                                 : 22.2 kb/s
  133. Count of elements                        : 3245
  134. Stream size                              : 23.3 MiB (0%)
  135. Title                                    : Cht/SUP  原盘繁体(HK)
  136. Language                                 : Chinese
  137. Default                                  : No
  138. Forced                                   : No
  139. Menu
  140. 00:00:00.000                             : en:绗?01 绔?
  141. 00:11:41.743                             : en:绗?02 绔?
  142. 00:21:37.338                             : en:绗?03 绔?
  143. 00:31:20.337                             : en:绗?04 绔?
  144. 00:41:22.230                             : en:绗?05 绔?
  145. 00:51:13.737                             : en:绗?06 绔?
  146. 01:01:21.553                             : en:绗?07 绔?
  147. 01:10:29.684                             : en:绗?08 绔?
  148. 01:22:15.597                             : en:绗?09 绔?
  149. 01:31:52.590                             : en:绗?10 绔?
  150. 01:40:38.532                             : en:绗?11 绔?
  151. 01:51:22.175                             : en:绗?12 绔?
  152. 02:00:54.414                             : en:绗?13 绔?
  153. 02:10:09.051                             : en:绗?14 绔?
  154. 02:20:55.447                             : en:绗?15 绔?
复制代码

















保举请利用qBittorrent,utorrent,transmission等标准BT软件下载!以获得最快速度。奉求保种!





回复

使用道具 举报

蓝光币
86
发表于 2022-8-26 22:44:11 | 显示全部楼层

这东西我收了!谢谢楼主!蓝光电影网真好!
回复 支持 反对

使用道具 举报

蓝光币
0
发表于 2022-11-4 18:57:28 | 显示全部楼层
好东西我收了!谢谢楼主!蓝光电影网真好!
回复 支持 反对

使用道具 举报

蓝光币
3
发表于 2022-11-21 19:25:57 | 显示全部楼层

楼主太厉害了!楼主,电影应该很好看我觉得蓝光电影网真是个好地方!
回复 支持 反对

使用道具 举报

蓝光币
3
发表于 2022-11-24 23:12:40 | 显示全部楼层

楼主太厉害了!楼主,电影应该很好看我觉得蓝光电影网真是个好地方!
回复 支持 反对

使用道具 举报

蓝光币
268
发表于 6 天前 | 显示全部楼层
超经典 这个电影就是超经典的哦
回复 支持 反对

使用道具 举报

懒得打字嘛,点击右侧快捷回复 【右侧内容,后台自定义】
您需要登录后才可以回帖 登录 | 立即加入

本版积分规则

Archiver|小黑屋| 蓝光电影网 |网站地图

Copyright © 2021 Comsenz Inc. Powered by 蓝光电影网

蓝光电影网

本站内容由用户自主分享和转载自互联网,转载目的在于传递更多信息,并不代表本网赞同其观点和对其真实性负责。

如有侵权、违反国家法律政策行为,请联系我们,我们会第一时间及时清除和处理!

举报反馈邮箱:[email protected]

快速回复 返回顶部 返回列表