找回密码

蓝光电影网

查看: 135|回复: 4

[2160p] 独立日[共2部合集][简繁英字幕].Independence.Day.1-2.1996-2016.UHD.BluRay.2160p.TrueHD.Atmos.7.1.x265.10bit.HDR-ALT 42.90GB

[复制链接]
蓝光币
7
发表于 2022-7-29 18:45:59 | 显示全部楼层 |阅读模式


◎标  题 自力日
◎译  名 ID4星际终结者(台) / 天煞-地球还击战(港) / 地球保卫战
◎片  名 Independence Day
◎年  代 1996
◎产  地 美国
◎类  别 行动 / 科幻 / 冒险 / 灾难
◎语  言 英语
◎上映日期 1996-07-02(加拿大) / 1996-07-03(美国)
◎IMDb评分 7/10 (552180人评价)
◎IMDb链接 https://www.imdb.com/title/tt0116629/
◎豆瓣评分 8.1/10 (256082人评价)
◎豆瓣链接 https://movie.douban.com/subject/1293013/
◎片  长 145分钟 / 154分钟(出格版)
◎导  演 罗兰·艾默里奇 Roland Emmerich
◎编  剧 罗兰·艾默里奇 Roland Emmerich
       迪安·德夫林 Dean Devlin
◎演  员 威尔·史姑娘 Will Smith
       杰夫·高布伦 Jeff Goldblum
       比尔·普尔曼 Bill Pullman
       玛丽·麦克唐纳 Mary McDonnell
       贾德·赫希 Judd Hirsch
       罗伯特·劳吉亚 Robert Loggia
       兰迪·奎德 Randy Quaid
       玛格丽特·柯林 Margaret Colin
       薇薇卡·福克斯 Vivica A. Fox
       詹姆斯·瑞布霍恩 James Rebhorn
       哈维·费斯特恩 Harvey Fierstein
       亚当·鲍德温 Adam Baldwin
       布伦特·斯皮内 Brent Spiner
       詹姆斯·杜瓦尔 James Duval
       莉萨·雅克布 Lisa Jakub
       杰赛普·安德鲁斯 Giuseppe Andrews
       罗斯·巴格利 Ross Bagley
       比尔·斯米托洛维奇 Bill Smitrovich
       梅·惠特曼 Mae Whitman
       小哈里·康尼克 Harry Connick Jr.
       绮尔斯腾·瓦伦 Kiersten Warren
       约翰·斯托里 John Storey
       弗兰克·诺瓦克 Frank Novak
       德文·古梅尔萨尔 Devon Gummersall
       吉姆·皮多克 Jim Piddock
       罗伯特·派恩 Robert Pine
       皮特·J.卢卡斯 Peter J. Lucas
       小理察·斯贝特 Richard Speight Jr.
       Anthony Crivello Anthony Crivello
       巴里·德尔·舍曼 Barry Del Sherman
       克里斯托弗·康纳德 Kristof Konrad
       格雷格·科林斯 Greg Collins
       维恩·维尔德森 Wayne Wilderson
       珍娜·马瑞·霍普 Jana Marie Hupp
       兰斯·霍华德 Rance Howard
       Adam Tomei Adam Tomei
       金伯莉·贝克 Kimberly Beck
       卡德罗莎·奥娜·卡罗尔
       德里克·韦伯斯特 Derek Webster
       安德鲁·凯加 Andrew Keegan
       约翰·贝内特·派瑞 John Bennett Perry
       卡洛斯·拉卡马拉 Carlos Lacamara
       丹·劳里亚 Dan Lauria
       杰·阿克沃内 Jay Acovone
       拉法埃尔·沙巴拉格 Raphael Sbarge
       利兰·奥瑟 Leland Orser
       Darla Rae Darla Rae
       Jon Matthews Jon Matthews
       Daren Dochterman Daren Dochterman
       鲍比·霍希 Bobby Hosea
       加里·A·赫克 Gary A. Hecker
◎标  签 科幻 / 美国 / 灾难 / 外星人 / 典范 / 行动 / 战争 / 1996
◎简  介
    未来某年的7月2日,美国各地的监视站发现一艘直径达数百英里的庞大飞船接近了地球。飞船发出的无线电信号干扰了地球的通讯卫星信号,并放出了多艘直径达15英里的子飞船飞抵地球上各大城市的上空。外星飞船敌友未明,人们堕入了发急和迷惑。                                                                      电脑工程师戴维(杰夫•戈德布拉姆 饰)破译出外星人发出的无线电信号,实在是进犯的倒计时信号,他想法告诉了前妻,总统的助理康妮,可是为时已晚,7月3日,外星人的飞船起头进犯地球,人类文化瞬间遭到庞大的冲击和灾难。总统(比尔•普尔曼 饰)等人撤离到军事基地,批示空军还击,却如同以卵击石,毫无感化,军事基地也被摧毁,惟有飞翔员史蒂文(威尔•史姑娘 饰)想法诱使一架外星人战役飞艇坠毁。                                                                      幸存者们逃到了奥秘军事基地,在那边,科学家们一向在研讨一艘50多年前坠毁的外星飞艇,努力于找出对于外星人的法子,那边也是人类最初的希望……
  1. 合集文件列表:
  2. 1.Independence.Day.1996.UHD.BluRay.2160p.DTS-HD.MA.7.1.x265.10bit.HDR-ALT.mkv 24.50GB
  3. 2.Independence.Day.Resurgence.2016.UHD.BluRay.2160p.TrueHD.Atmos.7.1.x265.10bit.HDR-ALT.mkv 18.40GB
复制代码
  1. ##### MediaInfo ######
  2. General
  3. Unique ID                                : 41232309153359580561034691297624024486 (0x1F050DCB91B3C9AAFAF17F8E0B5165A6)
  4. Complete name                            : Independence.Day.1996.UHD.BluRay.2160p.DTS-HD.MA.7.1.x265.10bit.HDR-ALT.mkv
  5. Format                                   : Matroska
  6. Format version                           : Version 4
  7. File size                                : 24.5 GiB
  8. Duration                                 : 2 h 33 min
  9. Overall bit rate mode                    : Variable
  10. Overall bit rate                         : 22.8 Mb/s
  11. Movie name                               : Independence Day
  12. Encoded date                             : UTC 2020-11-14 06:03:57
  13. Writing application                      : mkvmerge v49.0.0 ('Sick Of Losing Soulmates') 64-bit
  14. Writing library                          : libebml v1.4.0 + libmatroska v1.6.1
  15. Cover                                    : Yes
  16. Attachments                              : cover.jpg
  17. Video
  18. ID                                       : 1
  19. Format                                   : HEVC
  20. Format/Info                              : High Efficiency Video Coding
  21. Format profile                           : Main [email protected]@High
  22. HDR format                               : SMPTE ST 2086, HDR10 compatible
  23. Codec ID                                 : V_MPEGH/ISO/HEVC
  24. Duration                                 : 2 h 33 min
  25. Bit rate                                 : 16.6 Mb/s
  26. Width                                    : 3 840 pixels
  27. Height                                   : 1 608 pixels
  28. Display aspect ratio                     : 2.40:1
  29. Frame rate mode                          : Constant
  30. Frame rate                               : 23.976 (24000/1001/53875) FPS
  31. Color space                              : YUV
  32. Chroma subsampling                       : 4:2:0 (Type 2)
  33. Bit depth                                : 10 bits
  34. Bits/(Pixel*Frame)                       : 0.112
  35. Stream size                              : 17.8 GiB (73%)
  36. Title                                    : HEVC, [email protected]@High, 24/1.001 fps @ 16607 kbps
  37. Writing library                          : x265 3.4+14-gd419c7152:[Windows][GCC 10.2.0][64 bit] 10bit
  38. Encoding settings                        : cpuid=538751111039 / frame-threads=5 / numa-pools=44,44 / wpp / pmode / pme / no-psnr / no-ssim / log-level=2 / input-csp=1 / input-res=3840x1608 / interlace=0 / total-frames=220902 / level-idc=51 / high-tier=1 / uhd-bd=0 / ref=4 / no-allow-non-conformance / repeat-headers / annexb / no-aud / hrd / info / hash=0 / no-temporal-layers / no-open-gop / min-keyint=24 / keyint=240 / gop-lookahead=0 / bframes=8 / b-adapt=2 / b-pyramid / bframe-bias=0 / rc-lookahead=25 / lookahead-slices=0 / NTM4NzU=uuDQuD2mJt9fsCf / scenecut=40 / hist-scenecut=0 / radl=0 / no-splice / no-intra-refresh / ctu=64 / min-cu-size=8 / no-rect / no-amp / max-tu-size=32 / tu-inter-depth=3 / tu-intra-depth=3 / limit-tu=4 / rdoq-level=2 / dynamic-rd=0.00 / no-ssim-rd / signhide / no-tskip / nr-intra=0 / nr-inter=0 / no-constrained-intra / no-strong-intra-smoothing / max-merge=4 / limit-refs=1 / limit-modes / me=3 / subme=4 / merange=25 / temporal-mvp / no-frame-dup / no-hme / weightp / weightb / no-analyze-src-pics / deblock=-3:-3 / no-sao / no-sao-non-deblock / rd=6 / selective-sao=0 / no-early-skip / rskip / no-fast-intra / no-tskip-fast / no-cu-lossless / b-intra / no-splitrd-skip / rdpenalty=0 / psy-rd=2.00 / psy-rdoq=1.00 / no-rd-refine / no-lossless / cbqpoffs=0 / crqpoffs=0 / rc=crf / crf=21.0 / qcomp=0.65 / qpstep=4 / stats-write=0 / stats-read=0 / vbv-maxrate=160000 / vbv-bufsize=160000 / vbv-init=0.9 / crf-max=0.0 / crf-min=0.0 / ipratio=1.30 / pbratio=1.20 / aq-mode=3 / aq-strength=0.85 / cutree / zone-count=0 / no-strict-cbr / qg-size=32 / no-rc-grain / qpmax=69 / qpmin=0 / no-const-vbv / sar=1 / overscan=0 / videoformat=5 / range=0 / colorprim=9 / transfer=16 / colormatrix=9 / chromaloc=1 / chromaloc-top=2 / chromaloc-bottom=2 / display-window=0 / master-display=G(13250,34500)B(7500,3000)R(34000,16000)WP(15635,16450)L(10000000,0) / cll=0,0 / min-luma=0 / max-luma=1023 / log2-max-poc-lsb=8 / vui-timing-info / vui-hrd-info / slices=1 / no-opt-qp-pps / no-opt-ref-list-length-pps / no-multi-pass-opt-rps / scenecut-bias=0.05 / hist-threshold=0.03 / no-opt-cu-delta-qp / no-aq-motion / hdr10 / hdr10-opt / no-dhdr10-opt / no-idr-recovery-sei / analysis-reuse-level=0 / analysis-save-reuse-level=0 / analysis-load-reuse-level=0 / scale-factor=0 / refine-intra=0 / refine-inter=0 / refine-mv=1 / refine-ctu-distortion=0 / no-limit-sao / ctu-info=0 / no-lowpass-dct / refine-analysis-type=0 / copy-pic=1 / max-ausize-factor=1.0 / no-dynamic-refine / no-single-sei / no-hevc-aq / no-svt / no-field / qp-adaptation-range=1.00 / no-scenecut-aware-qpconformance-window-offsets / right=0 / bottom=0 / NTM4NzU= / decoder-max-rate=0
  39. Language                                 : English
  40. Default                                  : Yes
  41. Forced                                   : No
  42. Color range                              : Limited
  43. Color primaries                          : BT.2020
  44. Transfer characteristics                 : PQ
  45. Matrix coefficients                      : BT.2020 non-constant
  46. Mastering display color primaries        : Display P3
  47. Mastering display luminance              : min: 0.0000 cd/m2, max: 1000 cd/m2
  48. Audio
  49. ID                                       : 2
  50. Format                                   : DTS XLL
  51. Format/Info                              : Digital Theater Systems
  52. Commercial name                          : DTS-HD Master Audio
  53. Codec ID                                 : A_DTS
  54. Duration                                 : 2 h 33 min
  55. Bit rate mode                            : Variable
  56. Bit rate                                 : 6 139 kb/s
  57. Channel(s)                               : 8 channels
  58. Channel layout                           : C L R LFE Lb Rb Lss Rss
  59. Sampling rate                            : 48.0 kHz
  60. Frame rate                               : 93.750 FPS (512 SPF)
  61. Bit depth                                : 24 bits
  62. Compression mode                         : Lossless
  63. Delay relative to video                  : 2 ms
  64. Stream size                              : 6.59 GiB (27%)
  65. Title                                    : English DTS-HD Master Audio 7.1 @ 6139 Kbps
  66. Language                                 : English
  67. Default                                  : Yes
  68. Forced                                   : No
  69. Text #1
  70. ID                                       : 3
  71. Format                                   : PGS
  72. Codec ID                                 : S_HDMV/PGS
  73. Codec ID/Info                            : Picture based subtitle format used on BDs/HD-DVDs
  74. Duration                                 : 2 h 23 min
  75. Bit rate                                 : 35.2 kb/s
  76. Count of elements                        : 3573
  77. Stream size                              : 36.1 MiB (0%)
  78. Title                                    : Eng/SUP
  79. Language                                 : English
  80. Default                                  : No
  81. Forced                                   : No
  82. Text #2
  83. ID                                       : 4
  84. Format                                   : PGS
  85. Codec ID                                 : S_HDMV/PGS
  86. Codec ID/Info                            : Picture based subtitle format used on BDs/HD-DVDs
  87. Duration                                 : 2 h 25 min
  88. Bit rate                                 : 23.5 kb/s
  89. Count of elements                        : 4234
  90. Stream size                              : 24.4 MiB (0%)
  91. Title                                    : Chs/SUP  简体
  92. Language                                 : Chinese
  93. Default                                  : Yes
  94. Forced                                   : No
  95. Text #3
  96. ID                                       : 5
  97. Format                                   : PGS
  98. Codec ID                                 : S_HDMV/PGS
  99. Codec ID/Info                            : Picture based subtitle format used on BDs/HD-DVDs
  100. Duration                                 : 2 h 25 min
  101. Bit rate                                 : 24.7 kb/s
  102. Count of elements                        : 4234
  103. Stream size                              : 25.7 MiB (0%)
  104. Title                                    : Cht/SUP  繁体
  105. Language                                 : Chinese
  106. Default                                  : No
  107. Forced                                   : No
  108. Menu
  109. 00:00:00.000                             : en:第 01 章
  110. 00:02:43.872                             : en:第 02 章
  111. 00:05:01.467                             : en:第 03 章
  112. 00:07:32.577                             : en:第 04 章
  113. 00:08:02.315                             : en:第 05 章
  114. 00:09:21.602                             : en:第 06 章
  115. 00:10:29.879                             : en:第 07 章
  116. 00:12:06.600                             : en:第 08 章
  117. 00:14:08.514                             : en:第 09 章
  118. 00:14:56.729                             : en:第 10 章
  119. 00:18:56.969                             : en:第 11 章
  120. 00:25:33.114                             : en:第 12 章
  121. 00:27:23.725                             : en:第 13 章
  122. 00:30:10.808                             : en:第 14 章
  123. 00:32:18.102                             : en:第 15 章
  124. 00:34:12.633                             : en:第 16 章
  125. 00:36:39.405                             : en:第 17 章
  126. 00:38:17.378                             : en:第 18 章
  127. 00:40:05.110                             : en:第 19 章
  128. 00:41:02.167                             : en:第 20 章
  129. 00:41:33.449                             : en:第 21 章
  130. 00:44:15.611                             : en:第 22 章
  131. 00:44:37.925                             : en:第 23 章
  132. 00:46:02.801                             : en:第 24 章
  133. 00:48:48.008                             : en:第 25 章
  134. 00:50:42.038                             : en:第 26 章
  135. 00:54:22.717                             : en:第 27 章
  136. 00:57:22.480                             : en:第 28 章
  137. 00:58:05.148                             : en:第 29 章
  138. 01:03:10.995                             : en:第 30 章
  139. 01:04:30.157                             : en:第 31 章
  140. 01:06:00.748                             : en:第 32 章
  141. 01:06:52.967                             : en:第 33 章
  142. 01:08:20.012                             : en:第 34 章
  143. 01:11:22.027                             : en:第 35 章
  144. 01:12:50.324                             : en:第 36 章
  145. 01:14:38.140                             : en:第 37 章
  146. 01:18:29.537                             : en:第 38 章
  147. 01:21:19.207                             : en:第 39 章
  148. 01:23:04.729                             : en:第 40 章
  149. 01:25:59.779                             : en:第 41 章
  150. 01:27:49.680                             : en:第 42 章
  151. 01:35:25.260                             : en:第 43 章
  152. 01:38:52.217                             : en:第 44 章
  153. 01:39:55.572                             : en:第 45 章
  154. 01:42:51.790                             : en:第 46 章
  155. 01:49:33.232                             : en:第 47 章
  156. 01:53:25.339                             : en:第 48 章
  157. 01:55:01.060                             : en:第 49 章
  158. 01:59:38.754                             : en:第 50 章
  159. 02:04:03.393                             : en:第 51 章
  160. 02:07:41.403                             : en:第 52 章
  161. 02:10:50.675                             : en:第 53 章
  162. 02:11:52.612                             : en:第 54 章
  163. 02:17:21.316                             : en:第 55 章
  164. 02:21:17.343                             : en:第 56 章
  165. 02:24:48.679                             : en:第 57 章
复制代码

















保举请利用qBittorrent,utorrent,transmission等标准BT软件下载!以获得最快速度。奉求保种!





回复

使用道具 举报

蓝光币
51
发表于 2022-7-29 19:43:28 | 显示全部楼层
这片子还不错哦!
回复 支持 反对

使用道具 举报

蓝光币
1790
发表于 2022-7-29 22:01:04 | 显示全部楼层
太好啦&萬分感謝版主的無私發佈分享%
回复 支持 反对

使用道具 举报

蓝光币
10
发表于 2022-7-30 09:31:26 | 显示全部楼层

楼主太厉害了!楼主,电影应该很好看我觉得蓝光电影网真是个好地方!
回复 支持 反对

使用道具 举报

蓝光币
161
发表于 2022-8-7 10:06:14 | 显示全部楼层
楼主发贴辛苦了,谢谢楼主分享!我觉得蓝光电影网是注册对了!
回复 支持 反对

使用道具 举报

懒得打字嘛,点击右侧快捷回复 【右侧内容,后台自定义】
您需要登录后才可以回帖 登录 | 立即加入

本版积分规则

Archiver|小黑屋| 蓝光电影网 |网站地图

Copyright © 2021 Comsenz Inc. Powered by 蓝光电影网

蓝光电影网

本站内容由用户自主分享和转载自互联网,转载目的在于传递更多信息,并不代表本网赞同其观点和对其真实性负责。

如有侵权、违反国家法律政策行为,请联系我们,我们会第一时间及时清除和处理!

举报反馈邮箱:[email protected]

快速回复 返回顶部 返回列表