找回密码

蓝光电影网

查看: 110|回复: 4

[2160p] 驯龙高手3[国粤英多音轨/简繁英字幕].How.to.Train.Your.Dragon.The.Hidden.World.2019.UHD.BluRay.2160p.MultiAudio.TrueHD(Atmos).7.1.x265.10bit.HDR-ALT 12.63GB

[复制链接]
蓝光币
7
发表于 2022-7-29 18:46:10 | 显示全部楼层 |阅读模式


◎标  题 驯龙高手3
◎译  名 驯龙记3(港) / 驯龙高手3:隐蔽的天下 / How to Train Your Dragon 3
◎片  名 How to Train Your Dragon: The Hidden World
◎年  代 2019
◎产  地 美国
◎类  别 动画 / 奇异 / 冒险
◎语  言 英语
◎上映日期 2019-03-01(中国大陆) / 2019-01-03(澳大利亚) / 2019-02-22(美国)
◎IMDb评分 7.5/10 (117213人评价)
◎IMDb链接 https://www.imdb.com/title/tt2386490/
◎豆瓣评分 7.4/10 (237409人评价)
◎豆瓣链接 https://movie.douban.com/subject/19899707/
◎片  长 104分钟
◎导  演 迪恩·德布洛斯 Dean DeBlois
◎编  剧 迪恩·德布洛斯 Dean DeBlois
       葛蕾熙达·柯维尔 Cressida Cowell
◎演  员 杰伊·巴鲁切尔 Jay Baruchel
       亚美莉卡·费雷拉 America Ferrera
       F·默里·亚伯拉罕 F. Murray Abraham
       凯特·布兰切特 Cate Blanchett
       杰拉德·巴特勒 Gerard Butler
       克雷格·费格森 Craig Ferguson
       乔纳·希尔 Jonah Hill
       克里斯托夫·梅兹-普莱瑟 Christopher Mintz-Plasse
       克里斯汀·韦格 Kristen Wiig
       基特·哈灵顿 Kit Harington
       罗宾·阿特金·唐斯 Robin Atkin Downes
       基隆·埃利奥特 Kieron Elliott
       吉迪恩·埃默里 Gideon Emery
       阿什利·詹森 Ashley Jensen
       奥拉维尔·达里·奥拉夫松 Ólafur Darri Ólafsson
       詹姆士·谢 James Sie
       大卫·田纳特 David Tennant
       刘昊然 Haoran Liu
       吉尔莫·德尔·托罗 Guillermo del Toro
       约翰·鲍威尔 John Powell
       马克·海丝特 Mark Hester
       约翰·K·凯尔 John K. Carr
       玛丽·布莱 Mary Blee
       皮埃尔·奥利维尔·文森特 Pierre-Olivier Vincent
       郑文英 Woonyoung Jung
       尤里·柳伊 Iuri Lioi
       罗杰·狄金斯 Roger Deakins
◎标  签 动画 / 梦工场 / 长大 / 温情 / 美国 / 奇异 / 冒险 / 2019
◎简  介
  梦工场动画将倾情奉献一段跌宕升沉的故事,仆人公们不竭长大,寻觅面临未知的勇气,始终不离不弃。一位维京少年和一只使人生畏的夜煞飞龙之间看似不成能的友谊,已经演酿成了一段延续相互平生的史诗级冒险。这即是行将上映的《驯龙高手3》,也是影史上最受接待的动画系列之一《驯龙高手》系列最为浓墨重彩的崭新篇章。                                    
                                管辖伯克岛的酋长嗝嗝,与阿丝翠德配合打造了一个奇妙而热烈的飞龙乌托邦。而一只雌性光煞飞龙的意外出现,加上一个史无前例的威胁的到来,令嗝嗝和没牙仔不能不分开自己唯一的故里,前往他们本以为只存在于神话当中的隐蔽之境。在发现自己实在的命运以后,飞龙与骑士将携手殊死奋战,庇护他们所珍重的一切。
  1. ##### MediaInfo ######
  2. General
  3. Unique ID                                : 11912149132947354524775455785070029744 (0x8F6324BF86669040040115F7D0EEBB0)
  4. Complete name                            : How.to.Train.Your.Dragon.The.Hidden.World.2019.UHD.BluRay.2160p.MultiAudio.TrueHD(Atmos).7.1.x265.10bit.HDR-ALT.mkv
  5. Format                                   : Matroska
  6. Format version                           : Version 4
  7. File size                                : 12.6 GiB
  8. Duration                                 : 1 h 44 min
  9. Overall bit rate mode                    : Variable
  10. Overall bit rate                         : 17.4 Mb/s
  11. Encoded date                             : UTC 2019-06-08 07:44:00
  12. Writing application                      : mkvmerge v34.0.0 ('Sight and Seen') 64-bit
  13. Writing library                          : libebml v1.3.7 + libmatroska v1.5.0
  14. Video
  15. ID                                       : 1
  16. Format                                   : HEVC
  17. Format/Info                              : High Efficiency Video Coding
  18. Format profile                           : Main [email protected]@High
  19. HDR format                               : SMPTE ST 2086, HDR10 compatible
  20. Codec ID                                 : V_MPEGH/ISO/HEVC
  21. Duration                                 : 1 h 44 min
  22. Bit rate                                 : 11.0 Mb/s
  23. Width                                    : 3 840 pixels
  24. Height                                   : 1 634 pixels
  25. Display aspect ratio                     : 2.35:1
  26. Frame rate mode                          : Constant
  27. Frame rate                               : 23.976 (24000/1001/53875) FPS
  28. Color space                              : YUV
  29. Chroma subsampling                       : 4:2:0 (Type 2)
  30. Bit depth                                : 10 bits
  31. Bits/(Pixel*Frame)                       : 0.073
  32. Stream size                              : 8.00 GiB (63%)
  33. Title                                    : HEVC, [email protected]@High, 24/1.001 fps @ 11000 kbps
  34. Writing library                          : x265 3.0_Au+4-dcbec33bfb0f:[Windows][GCC 8.2.1][64 bit] 10bit
  35. Encoding settings                        : cpuid=538751111039 / frame-threads=4 / numa-pools=16 / wpp / no-pmode / no-pme / no-psnr / no-ssim / log-level=2 / input-csp=1 / input-res=3840x1634 / interlace=0 / total-frames=149757 / level-idc=51 / high-tier=1 / uhd-bd=0 / ref=4 / no-allow-non-conformance / repeat-headers / annexb / no-aud / hrd / info / hash=0 / no-temporal-layers / no-open-gop / min-keyint=24 / keyint=240 / gop-lookahead=0 / bframes=8 / b-adapt=2 / b-pyramid / bframe-bias=0 / rc-lookahead=25 / lookahead-slices=0 / NTM4NzU=uuDQuD2mJt9fsCf / scenecut=40 / radl=0 / no-splice / no-intra-refresh / ctu=64 / min-cu-size=8 / no-rect / no-amp / max-tu-size=32 / tu-inter-depth=3 / tu-intra-depth=3 / limit-tu=4 / rdoq-level=2 / dynamic-rd=0.00 / no-ssim-rd / signhide / no-tskip / nr-intra=0 / nr-inter=0 / no-constrained-intra / no-strong-intra-smoothing / max-merge=4 / limit-refs=1 / limit-modes / me=3 / subme=4 / merange=57 / temporal-mvp / weightp / weightb / no-analyze-src-pics / deblock=-3:-3 / no-sao / no-sao-non-deblock / rd=6 / no-early-skip / rskip / no-fast-intra / no-tskip-fast / no-cu-lossless / b-intra / no-splitrd-skip / rdpenalty=0 / psy-rd=2.00 / psy-rdoq=1.00 / no-rd-refine / no-lossless / cbqpoffs=0 / crqpoffs=0 / rc=abr / bitrate=11000 / qcomp=0.65 / qpstep=4 / stats-write=0 / stats-read=2 / cplxblur=20.0 / qblur=0.5 / vbv-maxrate=160000 / vbv-bufsize=160000 / vbv-init=0.9 / ipratio=1.30 / pbratio=1.20 / aq-mode=3 / aq-strength=0.85 / cutree / zone-count=0 / no-strict-cbr / qg-size=32 / no-rc-grain / qpmax=69 / qpmin=0 / no-const-vbv / sar=1 / overscan=0 / videoformat=5 / range=0 / colorprim=9 / transfer=16 / colormatrix=9 / chromaloc=1 / chromaloc-top=2 / chromaloc-bottom=2 / display-window=0 / master-display=G(13250,34500)B(7500,3000)R(34000,16000)WP(15635,16450)L(10000000,50) / max-cll=1000,400 / min-luma=0 / max-luma=1023 / log2-max-poc-lsb=8 / vui-timing-info / vui-hrd-info / slices=1 / no-opt-qp-pps / no-opt-ref-list-length-pps / no-multi-pass-opt-rps / scenecut-bias=0.05 / no-opt-cu-delta-qp / no-aq-motion / hdr / hdr-opt / no-dhdr10-opt / no-idr-recovery-sei / analysis-reuse-level=5 / scale-factor=0 / refine-intra=0 / refine-inter=0 / refine-mv=0 / refine-ctu-distortion=0 / no-limit-sao / ctu-info=0 / no-lowpass-dct / refine-analysis-type=0 / copy-pic=1 / max-ausize-factor=1.0 / no-dynamic-refine / no-single-sei / no-hevc-aq / qp-adaptation-range=1.00
  36. Language                                 : English
  37. Default                                  : Yes
  38. Forced                                   : No
  39. Color range                              : Limited
  40. Color primaries                          : BT.2020
  41. Transfer characteristics                 : PQ
  42. Matrix coefficients                      : BT.2020 non-constant
  43. Mastering display color primaries        : Display P3
  44. Mastering display luminance              : min: 0.0050 cd/m2, max: 1000 cd/m2
  45. Maximum Content Light Level              : 1000 cd/m2
  46. Maximum Frame-Average Light Level        : 400 cd/m2
  47. Audio #1
  48. ID                                       : 2
  49. Format                                   : MLP FBA 16-ch
  50. Format/Info                              : Meridian Lossless Packing FBA with 16-channel presentation
  51. Commercial name                          : Dolby TrueHD with Dolby Atmos
  52. Codec ID                                 : A_TRUEHD
  53. Duration                                 : 1 h 44 min
  54. Bit rate mode                            : Variable
  55. Bit rate                                 : 3 312 kb/s
  56. Maximum bit rate                         : 5 016 kb/s
  57. Channel(s)                               : 8 channels
  58. Channel layout                           : L R C LFE Ls Rs Lb Rb
  59. Sampling rate                            : 48.0 kHz
  60. Frame rate                               : 1 200.000 FPS (40 SPF)
  61. Compression mode                         : Lossless
  62. Stream size                              : 2.41 GiB (19%)
  63. Title                                    : English Dolby TrueHD 7.1 (Atmos) @ 3312 kbps
  64. Language                                 : English
  65. Default                                  : Yes
  66. Forced                                   : No
  67. Number of dynamic objects                : 11
  68. Bed channel count                        : 1 channel
  69. Bed channel configuration                : LFE
  70. Audio #2
  71. ID                                       : 3
  72. Format                                   : AC-3
  73. Format/Info                              : Audio Coding 3
  74. Commercial name                          : Dolby Digital
  75. Codec ID                                 : A_AC3
  76. Duration                                 : 1 h 44 min
  77. Bit rate mode                            : Constant
  78. Bit rate                                 : 448 kb/s
  79. Channel(s)                               : 6 channels
  80. Channel layout                           : L R C LFE Ls Rs
  81. Sampling rate                            : 48.0 kHz
  82. Frame rate                               : 31.250 FPS (1536 SPF)
  83. Compression mode                         : Lossy
  84. Stream size                              : 334 MiB (3%)
  85. Title                                    : English Dolby Digital Audio 5.1 @ 448 kbps
  86. Language                                 : English
  87. Service kind                             : Complete Main
  88. Default                                  : No
  89. Forced                                   : No
  90. Audio #3
  91. ID                                       : 4
  92. Format                                   : E-AC-3
  93. Format/Info                              : Enhanced AC-3
  94. Commercial name                          : Dolby Digital Plus
  95. Format profile                           : Blu-ray Disc
  96. Codec ID                                 : A_EAC3
  97. Duration                                 : 1 h 44 min
  98. Bit rate mode                            : Constant
  99. Bit rate                                 : 768 kb/s
  100. Channel(s)                               : 8 channels
  101. Channel layout                           : L R C LFE Ls Rs Lb Rb
  102. Sampling rate                            : 48.0 kHz
  103. Frame rate                               : 31.250 FPS (1536 SPF)
  104. Compression mode                         : Lossy
  105. Stream size                              : 572 MiB (4%)
  106. Title                                    : Cantonese E-AC3 EX 7.1 @ 768 kbps  粤语
  107. Language                                 : Chinese
  108. Service kind                             : Complete Main
  109. Default                                  : No
  110. Forced                                   : No
  111. Audio #4
  112. ID                                       : 5
  113. Format                                   : AC-3
  114. Format/Info                              : Audio Coding 3
  115. Commercial name                          : Dolby Digital
  116. Codec ID                                 : A_AC3
  117. Duration                                 : 1 h 44 min
  118. Bit rate mode                            : Constant
  119. Bit rate                                 : 640 kb/s
  120. Channel(s)                               : 6 channels
  121. Channel layout                           : L R C LFE Ls Rs
  122. Sampling rate                            : 48.0 kHz
  123. Frame rate                               : 31.250 FPS (1536 SPF)
  124. Compression mode                         : Lossy
  125. Stream size                              : 477 MiB (4%)
  126. Title                                    : Mandarin Dolby Digital Audio 5.1 @ 640 kbps  国语
  127. Language                                 : Chinese
  128. Service kind                             : Complete Main
  129. Default                                  : No
  130. Forced                                   : No
  131. Audio #5
  132. ID                                       : 6
  133. Format                                   : E-AC-3
  134. Format/Info                              : Enhanced AC-3
  135. Commercial name                          : Dolby Digital Plus
  136. Format profile                           : Blu-ray Disc
  137. Codec ID                                 : A_EAC3
  138. Duration                                 : 1 h 44 min
  139. Bit rate mode                            : Constant
  140. Bit rate                                 : 768 kb/s
  141. Channel(s)                               : 8 channels
  142. Channel layout                           : L R C LFE Ls Rs Lb Rb
  143. Sampling rate                            : 48.0 kHz
  144. Frame rate                               : 31.250 FPS (1536 SPF)
  145. Compression mode                         : Lossy
  146. Stream size                              : 572 MiB (4%)
  147. Title                                    : Mandarin E-AC3 EX 7.1 @ 768 kbps  台配国语
  148. Language                                 : Chinese
  149. Service kind                             : Complete Main
  150. Default                                  : No
  151. Forced                                   : No
  152. Audio #6
  153. ID                                       : 7
  154. Format                                   : AC-3
  155. Format/Info                              : Audio Coding 3
  156. Commercial name                          : Dolby Digital
  157. Codec ID                                 : A_AC3
  158. Duration                                 : 1 h 44 min
  159. Bit rate mode                            : Constant
  160. Bit rate                                 : 192 kb/s
  161. Channel(s)                               : 2 channels
  162. Channel layout                           : L R
  163. Sampling rate                            : 48.0 kHz
  164. Frame rate                               : 31.250 FPS (1536 SPF)
  165. Compression mode                         : Lossy
  166. Stream size                              : 143 MiB (1%)
  167. Title                                    : English Dolby Digital Audio 2.0 @ 192 kbps  Commentary
  168. Language                                 : English
  169. Service kind                             : Complete Main
  170. Default                                  : No
  171. Forced                                   : No
  172. Text #1
  173. ID                                       : 8
  174. Format                                   : PGS
  175. Codec ID                                 : S_HDMV/PGS
  176. Codec ID/Info                            : Picture based subtitle format used on BDs/HD-DVDs
  177. Duration                                 : 1 h 32 min
  178. Bit rate                                 : 42.1 kb/s
  179. Count of elements                        : 3090
  180. Stream size                              : 28.0 MiB (0%)
  181. Title                                    : Eng/SUP
  182. Language                                 : English
  183. Default                                  : No
  184. Forced                                   : No
  185. Text #2
  186. ID                                       : 9
  187. Format                                   : PGS
  188. Codec ID                                 : S_HDMV/PGS
  189. Codec ID/Info                            : Picture based subtitle format used on BDs/HD-DVDs
  190. Duration                                 : 1 h 42 min
  191. Bit rate                                 : 19.7 kb/s
  192. Count of elements                        : 2088
  193. Stream size                              : 14.5 MiB (0%)
  194. Title                                    : Cht/SUP  原盘繁体(HK)
  195. Language                                 : Chinese
  196. Default                                  : No
  197. Forced                                   : No
  198. Text #3
  199. ID                                       : 10
  200. Format                                   : PGS
  201. Codec ID                                 : S_HDMV/PGS
  202. Codec ID/Info                            : Picture based subtitle format used on BDs/HD-DVDs
  203. Duration                                 : 1 h 42 min
  204. Bit rate                                 : 23.9 kb/s
  205. Count of elements                        : 2108
  206. Stream size                              : 17.6 MiB (0%)
  207. Title                                    : Chs/SUP  原盘简体
  208. Language                                 : Chinese
  209. Default                                  : Yes
  210. Forced                                   : No
  211. Text #4
  212. ID                                       : 11
  213. Format                                   : PGS
  214. Codec ID                                 : S_HDMV/PGS
  215. Codec ID/Info                            : Picture based subtitle format used on BDs/HD-DVDs
  216. Duration                                 : 1 h 42 min
  217. Bit rate                                 : 23.4 kb/s
  218. Count of elements                        : 2108
  219. Stream size                              : 17.2 MiB (0%)
  220. Title                                    : Cht/SUP  原盘繁体(TW)
  221. Language                                 : Chinese
  222. Default                                  : No
  223. Forced                                   : No
  224. Text #5
  225. ID                                       : 12
  226. Format                                   : PGS
  227. Codec ID                                 : S_HDMV/PGS
  228. Codec ID/Info                            : Picture based subtitle format used on BDs/HD-DVDs
  229. Duration                                 : 1 h 37 min
  230. Bit rate                                 : 69.7 kb/s
  231. Count of elements                        : 3238
  232. Stream size                              : 48.4 MiB (0%)
  233. Title                                    : Eng/SUP  Commentary
  234. Language                                 : English
  235. Default                                  : No
  236. Forced                                   : No
  237. Menu
  238. 00:00:00.000                             : :绗?01 绔?
  239. 00:05:13.522                             : :绗?02 绔?
  240. 00:10:26.835                             : :绗?03 绔?
  241. 00:14:52.225                             : :绗?04 绔?
  242. 00:20:33.065                             : :绗?05 绔?
  243. 00:24:38.686                             : :绗?06 绔?
  244. 00:28:40.886                             : :绗?07 绔?
  245. 00:31:10.118                             : :绗?08 绔?
  246. 00:37:35.128                             : :绗?09 绔?
  247. 00:44:38.551                             : :绗?10 绔?
  248. 00:47:53.579                             : :绗?11 绔?
  249. 00:53:11.021                             : :绗?12 绔?
  250. 00:57:36.286                             : :绗?13 绔?
  251. 01:01:25.056                             : :绗?14 绔?
  252. 01:08:55.923                             : :绗?15 绔?
  253. 01:14:17.703                             : :绗?16 绔?
  254. 01:19:31.141                             : :绗?17 绔?
  255. 01:23:23.290                             : :绗?18 绔?
  256. 01:28:24.716                             : :绗?19 绔?
  257. 01:33:53.378                             : :绗?20 绔?
复制代码

















保举请利用qBittorrent,utorrent,transmission等标准BT软件下载!以获得最快速度。奉求保种!





回复

使用道具 举报

蓝光币
3
发表于 2022-7-29 23:18:46 | 显示全部楼层
楼主发贴辛苦了,谢谢楼主分享!我觉得蓝光电影网是注册对了!
回复 支持 反对

使用道具 举报

蓝光币
67
发表于 2022-7-30 07:18:03 | 显示全部楼层
66666666666666666666666666666666
回复 支持 反对

使用道具 举报

蓝光币
283
发表于 2022-7-30 17:49:53 | 显示全部楼层

楼主太厉害了!楼主,电影应该很好看我觉得蓝光电影网真是个好地方!
回复 支持 反对

使用道具 举报

蓝光币
165
发表于 2022-8-6 08:56:20 | 显示全部楼层
感谢分享
回复

使用道具 举报

懒得打字嘛,点击右侧快捷回复 【右侧内容,后台自定义】
您需要登录后才可以回帖 登录 | 立即加入

本版积分规则

Archiver|小黑屋| 蓝光电影网 |网站地图

Copyright © 2021 Comsenz Inc. Powered by 蓝光电影网

蓝光电影网

本站内容由用户自主分享和转载自互联网,转载目的在于传递更多信息,并不代表本网赞同其观点和对其真实性负责。

如有侵权、违反国家法律政策行为,请联系我们,我们会第一时间及时清除和处理!

举报反馈邮箱:[email protected]

快速回复 返回顶部 返回列表