找回密码

蓝光电影网

查看: 76|回复: 1

[2160p] 驯龙高手[国粤英多音轨/简繁英字幕].How.To.Train.Your.Dragon.2010.UHD.BluRay.2160p.MultiAudio.DTS-X.MA.7.1.x265.10bit.HDR-ALT 12.46GB

[复制链接]
蓝光币
7
发表于 2022-7-29 18:46:15 | 显示全部楼层 |阅读模式


◎标  题 驯龙高手
◎译  名 驯龙记(港)
◎片  名 How to Train Your Dragon
◎年  代 2010
◎产  地 美国
◎类  别 动画 / 奇异 / 冒险
◎语  言 英语
◎上映日期 2010-05-14(中国大陆) / 2010-03-18(俄罗斯) / 2010-03-26(美国)
◎IMDb评分 8.1/10 (700531人评价)
◎IMDb链接 https://www.imdb.com/title/tt0892769/
◎豆瓣评分 8.7/10 (659546人评价)
◎豆瓣链接 https://movie.douban.com/subject/2353023/
◎片  长 98分钟
◎导  演 迪恩·德布洛斯 Dean DeBlois
       克里斯·桑德斯 Chris Sanders
◎编  剧 威廉姆·戴维斯 William Davies
       迪恩·德布洛斯 Dean DeBlois
       克里斯·桑德斯 Chris Sanders
       葛蕾熙达·柯维尔 Cressida Cowell
◎演  员 杰伊·巴鲁切尔 Jay Baruchel
       杰拉德·巴特勒 Gerard Butler
       克雷格·费格森 Craig Ferguson
       亚美莉卡·费雷拉 America Ferrera
       乔纳·希尔 Jonah Hill
       克里斯托夫·梅兹-普莱瑟 Christopher Mintz-Plasse
       T·J·米勒 T.J. Miller
       克里斯汀·韦格 Kristen Wiig
       罗宾·阿特金·唐斯 Robin Atkin Downes
       菲利普·麦格雷德 Philip McGrade
       基隆·埃利奥特 Kieron Elliott
       阿什利·詹森 Ashley Jensen
       大卫·田纳特 David Tennant
       艾米利亚·舒勒 Emilia Schüle
       陈汉典 Han Dian Chen
       苏珊妮·伯尔基 Suzanne Buirgy
       约翰·鲍威尔 John Powell
       达伦·T·霍姆斯 Darren T. Holmes
       玛丽安·布兰登 Maryann Brandon
◎标  签 动画 / 梦工场 / 美国 / 奇异 / 童话 / 温情 / 长大 / 笑剧
◎简  介
  维京岛国的少年小嗝嗝(杰伊•巴鲁切尔 Jay Baruchel 配音)是部落管辖巨大的斯托里克(杰拉德·巴特勒 Gerard Butler 配音)的儿子,他很是想像自己的父亲一样亲手屠龙——这些飞龙是岛上维京人放牧羊群的首要天敌——但他每次出现在部落屠龙的战役中都只给大师徒增懊恼。在一次匹敌飞龙的战役中,希卡普偷偷用射龙器击伤了一只最奥秘的“夜之怒龙”,并背着族人放生、饲养,甚至驯服了这只龙,还给它起名“无牙”。希卡普的奥秘行动引发了一同练习屠龙技能的女孩阿斯特丽德(亚美莉卡·费雷拉 America Ferrera 配音)的思疑。阿斯特丽德发现了希卡普的奥秘,却同时被身骑“无牙”御风而飞的美好体验所震动。格雷决议在屠龙成人礼上向远征归来的斯托里克和族人批注真相,压服大师放弃屠龙,却恰恰画蛇添足,害得“无牙”被俘,一场更大的灾难就在眼前……
  1. ##### MediaInfo ######
  2. General
  3. Unique ID                                : 328749049876705821765851069991405135160 (0xF752C39138775E6DB911BB7E92A6A538)
  4. Complete name                            : How.To.Train.Your.Dragon.2010.UHD.BluRay.2160p.MultiAudio.DTS-X.MA.7.1.x265.10bit.HDR-ALT.mkv
  5. Format                                   : Matroska
  6. Format version                           : Version 4
  7. File size                                : 12.5 GiB
  8. Duration                                 : 1 h 38 min
  9. Overall bit rate mode                    : Variable
  10. Overall bit rate                         : 18.2 Mb/s
  11. Encoded date                             : UTC 2019-12-28 03:39:29
  12. Writing application                      : mkvmerge v41.0.0 ('Smarra') 64-bit
  13. Writing library                          : libebml v1.3.9 + libmatroska v1.5.2
  14. Video
  15. ID                                       : 1
  16. Format                                   : HEVC
  17. Format/Info                              : High Efficiency Video Coding
  18. Format profile                           : Main [email protected]@High
  19. HDR format                               : SMPTE ST 2086, HDR10 compatible
  20. Codec ID                                 : V_MPEGH/ISO/HEVC
  21. Duration                                 : 1 h 38 min
  22. Bit rate                                 : 9 926 kb/s
  23. Width                                    : 3 840 pixels
  24. Height                                   : 1 634 pixels
  25. Display aspect ratio                     : 2.35:1
  26. Frame rate mode                          : Constant
  27. Frame rate                               : 23.976 (24000/1001/53875) FPS
  28. Color space                              : YUV
  29. Chroma subsampling                       : 4:2:0 (Type 2)
  30. Bit depth                                : 10 bits
  31. Bits/(Pixel*Frame)                       : 0.066
  32. Stream size                              : 6.81 GiB (55%)
  33. Title                                    : HEVC, [email protected]@High, 24/1.001 fps @ 9926 kbps
  34. Writing library                          : x265 3.0_Au+4-dcbec33bfb0f:[Windows][GCC 8.2.1][64 bit] 10bit
  35. Encoding settings                        : cpuid=538751111039 / frame-threads=4 / numa-pools=12,12 / wpp / pmode / pme / no-psnr / no-ssim / log-level=2 / input-csp=1 / input-res=3840x1634 / interlace=0 / total-frames=141236 / level-idc=51 / high-tier=1 / uhd-bd=0 / ref=4 / no-allow-non-conformance / repeat-headers / annexb / no-aud / hrd / info / hash=0 / no-temporal-layers / no-open-gop / min-keyint=24 / keyint=240 / gop-lookahead=0 / bframes=8 / b-adapt=2 / b-pyramid / bframe-bias=0 / rc-lookahead=25 / lookahead-slices=0 / NTM4NzU=uuDQuD2mJt9fsCf / scenecut=40 / radl=0 / no-splice / no-intra-refresh / ctu=64 / min-cu-size=8 / no-rect / no-amp / max-tu-size=32 / tu-inter-depth=3 / tu-intra-depth=3 / limit-tu=4 / rdoq-level=2 / dynamic-rd=0.00 / no-ssim-rd / signhide / no-tskip / nr-intra=0 / nr-inter=0 / no-constrained-intra / no-strong-intra-smoothing / max-merge=4 / limit-refs=1 / limit-modes / me=3 / subme=4 / merange=25 / temporal-mvp / weightp / weightb / no-analyze-src-pics / deblock=-3:-3 / no-sao / no-sao-non-deblock / rd=6 / no-early-skip / rskip / no-fast-intra / no-tskip-fast / no-cu-lossless / b-intra / no-splitrd-skip / rdpenalty=0 / psy-rd=2.00 / psy-rdoq=1.00 / no-rd-refine / no-lossless / cbqpoffs=0 / crqpoffs=0 / rc=crf / crf=17.0 / qcomp=0.65 / qpstep=4 / stats-write=0 / stats-read=0 / vbv-maxrate=160000 / vbv-bufsize=160000 / vbv-init=0.9 / crf-max=0.0 / crf-min=0.0 / ipratio=1.30 / pbratio=1.20 / aq-mode=3 / aq-strength=0.85 / cutree / zone-count=0 / no-strict-cbr / qg-size=32 / no-rc-grain / qpmax=69 / qpmin=0 / no-const-vbv / sar=1 / overscan=0 / videoformat=5 / range=0 / colorprim=9 / transfer=16 / colormatrix=9 / chromaloc=1 / chromaloc-top=2 / chromaloc-bottom=2 / display-window=0 / master-display=G(13250,34500)B(7500,3000)R(34000,16000)WP(15635,16450)L(10000000,50) / max-cll=998,274 / min-luma=0 / max-luma=1023 / log2-max-poc-lsb=8 / vui-timing-info / vui-hrd-info / slices=1 / no-opt-qp-pps / no-opt-ref-list-length-pps / no-multi-pass-opt-rps / scenecut-bias=0.05 / no-opt-cu-delta-qp / no-aq-motion / hdr / hdr-opt / no-dhdr10-opt / no-idr-recovery-sei / analysis-reuse-level=5 / scale-factor=0 / refine-intra=0 / refine-inter=0 / refine-mv=0 / refine-ctu-distortion=0 / no-limit-sao / ctu-info=0 / no-lowpass-dct / refine-analysis-type=0 / copy-pic=1 / max-ausize-factor=1.0 / no-dynamic-refine / no-single-sei / no-hevc-aq / qp-adaptation-range=1.00
  36. Language                                 : English
  37. Default                                  : Yes
  38. Forced                                   : No
  39. Color range                              : Limited
  40. Color primaries                          : BT.2020
  41. Transfer characteristics                 : PQ
  42. Matrix coefficients                      : BT.2020 non-constant
  43. Mastering display color primaries        : Display P3
  44. Mastering display luminance              : min: 0.0050 cd/m2, max: 1000 cd/m2
  45. Maximum Content Light Level              : 998 cd/m2
  46. Maximum Frame-Average Light Level        : 274 cd/m2
  47. Audio #1
  48. ID                                       : 2
  49. Format                                   : DTS XLL X
  50. Format/Info                              : Digital Theater Systems
  51. Commercial name                          : DTS-HD Master Audio
  52. Codec ID                                 : A_DTS
  53. Duration                                 : 1 h 38 min
  54. Bit rate mode                            : Variable
  55. Bit rate                                 : 5 554 kb/s
  56. Channel(s)                               : 8 channels
  57. Channel(s)_Original                      : Object Based
  58. ChannelLayout_Original                   : Object Based
  59. Sampling rate                            : 48.0 kHz
  60. Frame rate                               : 93.750 FPS (512 SPF)
  61. Bit depth                                : 24 bits
  62. Stream size                              : 3.81 GiB (31%)
  63. Title                                    : English DTS:X Master Audio 7.1 @ 5554 kbps
  64. Language                                 : English
  65. Default                                  : Yes
  66. Forced                                   : No
  67. Audio #2
  68. ID                                       : 3
  69. Format                                   : DTS
  70. Format/Info                              : Digital Theater Systems
  71. Codec ID                                 : A_DTS
  72. Duration                                 : 1 h 38 min
  73. Bit rate mode                            : Constant
  74. Bit rate                                 : 768 kb/s
  75. Channel(s)                               : 6 channels
  76. Channel layout                           : C L R Ls Rs LFE
  77. Sampling rate                            : 48.0 kHz
  78. Frame rate                               : 93.750 FPS (512 SPF)
  79. Bit depth                                : 24 bits
  80. Compression mode                         : Lossy
  81. Stream size                              : 539 MiB (4%)
  82. Title                                    : Mandarin DTS 5.1 @ 640 kbps  国语
  83. Language                                 : Chinese
  84. Default                                  : No
  85. Forced                                   : No
  86. Audio #3
  87. ID                                       : 4
  88. Format                                   : DTS
  89. Format/Info                              : Digital Theater Systems
  90. Codec ID                                 : A_DTS
  91. Duration                                 : 1 h 38 min
  92. Bit rate mode                            : Constant
  93. Bit rate                                 : 768 kb/s
  94. Channel(s)                               : 6 channels
  95. Channel layout                           : C L R Ls Rs LFE
  96. Sampling rate                            : 48.0 kHz
  97. Frame rate                               : 93.750 FPS (512 SPF)
  98. Bit depth                                : 24 bits
  99. Compression mode                         : Lossy
  100. Stream size                              : 539 MiB (4%)
  101. Title                                    : Cantonese DTS 5.1 @ 640 kbps  粤语
  102. Language                                 : Chinese
  103. Default                                  : No
  104. Forced                                   : No
  105. Audio #4
  106. ID                                       : 5
  107. Format                                   : DTS
  108. Format/Info                              : Digital Theater Systems
  109. Codec ID                                 : A_DTS
  110. Duration                                 : 1 h 38 min
  111. Bit rate mode                            : Constant
  112. Bit rate                                 : 768 kb/s
  113. Channel(s)                               : 6 channels
  114. Channel layout                           : C L R Ls Rs LFE
  115. Sampling rate                            : 48.0 kHz
  116. Frame rate                               : 93.750 FPS (512 SPF)
  117. Bit depth                                : 24 bits
  118. Compression mode                         : Lossy
  119. Stream size                              : 539 MiB (4%)
  120. Title                                    : Mandarin DTS 5.1 @ 640 kbps  台配国语
  121. Language                                 : Chinese
  122. Default                                  : No
  123. Forced                                   : No
  124. Audio #5
  125. ID                                       : 6
  126. Format                                   : AC-3
  127. Format/Info                              : Audio Coding 3
  128. Commercial name                          : Dolby Digital
  129. Codec ID                                 : A_AC3
  130. Duration                                 : 1 h 38 min
  131. Bit rate mode                            : Constant
  132. Bit rate                                 : 192 kb/s
  133. Channel(s)                               : 2 channels
  134. Channel layout                           : L R
  135. Sampling rate                            : 48.0 kHz
  136. Frame rate                               : 31.250 FPS (1536 SPF)
  137. Compression mode                         : Lossy
  138. Stream size                              : 135 MiB (1%)
  139. Title                                    : English Dolby Digital Audio 2.0 @ 192 kbps  Commentary
  140. Language                                 : English
  141. Service kind                             : Complete Main
  142. Default                                  : No
  143. Forced                                   : No
  144. Text #1
  145. ID                                       : 7
  146. Format                                   : PGS
  147. Codec ID                                 : S_HDMV/PGS
  148. Codec ID/Info                            : Picture based subtitle format used on BDs/HD-DVDs
  149. Duration                                 : 1 h 30 min
  150. Bit rate                                 : 39.1 kb/s
  151. Count of elements                        : 2395
  152. Stream size                              : 25.3 MiB (0%)
  153. Title                                    : Eng/SUP
  154. Language                                 : English
  155. Default                                  : No
  156. Forced                                   : No
  157. Text #2
  158. ID                                       : 8
  159. Format                                   : PGS
  160. Codec ID                                 : S_HDMV/PGS
  161. Codec ID/Info                            : Picture based subtitle format used on BDs/HD-DVDs
  162. Duration                                 : 1 h 37 min
  163. Bit rate                                 : 26.3 kb/s
  164. Count of elements                        : 1779
  165. Stream size                              : 18.3 MiB (0%)
  166. Title                                    : Chs/SUP  原盘简体
  167. Language                                 : Chinese
  168. Default                                  : Yes
  169. Forced                                   : No
  170. Text #3
  171. ID                                       : 9
  172. Format                                   : PGS
  173. Codec ID                                 : S_HDMV/PGS
  174. Codec ID/Info                            : Picture based subtitle format used on BDs/HD-DVDs
  175. Duration                                 : 1 h 37 min
  176. Bit rate                                 : 20.6 kb/s
  177. Count of elements                        : 1725
  178. Stream size                              : 14.3 MiB (0%)
  179. Title                                    : Cht/SUP  原盘繁体(HK)
  180. Language                                 : Chinese
  181. Default                                  : No
  182. Forced                                   : No
  183. Text #4
  184. ID                                       : 10
  185. Format                                   : PGS
  186. Codec ID                                 : S_HDMV/PGS
  187. Codec ID/Info                            : Picture based subtitle format used on BDs/HD-DVDs
  188. Duration                                 : 1 h 37 min
  189. Bit rate                                 : 23.4 kb/s
  190. Count of elements                        : 1729
  191. Stream size                              : 16.3 MiB (0%)
  192. Title                                    : Cht/SUP  原盘繁体(TW)
  193. Language                                 : Chinese
  194. Default                                  : No
  195. Forced                                   : No
  196. Text #5
  197. ID                                       : 11
  198. Format                                   : PGS
  199. Codec ID                                 : S_HDMV/PGS
  200. Codec ID/Info                            : Picture based subtitle format used on BDs/HD-DVDs
  201. Duration                                 : 1 h 34 min
  202. Bit rate                                 : 86.8 kb/s
  203. Count of elements                        : 3349
  204. Stream size                              : 58.5 MiB (0%)
  205. Title                                    : Eng/SUP  Commentary
  206. Language                                 : English
  207. Default                                  : No
  208. Forced                                   : No
  209. Menu
  210. 00:00:00.000                             : en:第 01 章
  211. 00:09:03.793                             : en:第 02 章
  212. 00:11:56.007                             : en:第 03 章
  213. 00:15:35.059                             : en:第 04 章
  214. 00:22:21.090                             : en:第 05 章
  215. 00:28:05.726                             : en:第 06 章
  216. 00:33:38.225                             : en:第 07 章
  217. 00:39:31.160                             : en:第 08 章
  218. 00:43:52.713                             : en:第 09 章
  219. 00:47:32.391                             : en:第 10 章
  220. 00:50:11.217                             : en:第 11 章
  221. 01:00:19.825                             : en:第 12 章
  222. 01:05:11.407                             : en:第 13 章
  223. 01:09:52.188                             : en:第 14 章
  224. 01:13:02.211                             : en:第 15 章
  225. 01:23:50.067                             : en:第 16 章
  226. 01:29:18.520                             : en:第 17 章
复制代码

















保举请利用qBittorrent,utorrent,transmission等标准BT软件下载!以获得最快速度。奉求保种!





回复

使用道具 举报

蓝光币
1879
发表于 2022-7-30 13:07:56 | 显示全部楼层

既然你诚信诚意的推荐了,那我就勉为其难的看看吧!蓝光电影网不走平凡路。
回复 支持 反对

使用道具 举报

懒得打字嘛,点击右侧快捷回复 【右侧内容,后台自定义】
您需要登录后才可以回帖 登录 | 立即加入

本版积分规则

Archiver|小黑屋| 蓝光电影网 |网站地图

Copyright © 2021 Comsenz Inc. Powered by 蓝光电影网

蓝光电影网

本站内容由用户自主分享和转载自互联网,转载目的在于传递更多信息,并不代表本网赞同其观点和对其真实性负责。

如有侵权、违反国家法律政策行为,请联系我们,我们会第一时间及时清除和处理!

举报反馈邮箱:[email protected]

快速回复 返回顶部 返回列表