找回密码

蓝光电影网

查看: 160|回复: 0

[剧情] 绝地逃亡[简繁英字幕].Skiptrace.2016.BluRay.1080p.DTS-HD.MA5.1.x265.10bit-ALT 7.30GB

[复制链接]
蓝光币
8
发表于 2022-7-29 18:49:44 | 显示全部楼层 |阅读模式


◎标  题 绝地流亡
◎译  名 跨境追捕 / 腾跃追踪
◎片  名 Skiptrace
◎年  代 2016
◎产  地 中国大陆 / 美国 / 中国香港
◎类  别 笑剧 / 行动
◎语  言 汉语普通话 / 英语 / 俄语
◎上映日期 2016-07-21(中国大陆) / 2016-09-02(美国)
◎IMDb评分 5.7/10 (20331人评价)
◎IMDb链接 https://www.imdb.com/title/tt2238032/
◎豆瓣评分 5.7/10 (88886人评价)
◎豆瓣链接 https://movie.douban.com/subject/24529353/
◎片  长 111分钟(中国大陆)
◎导  演 雷尼·哈林 Renny Harlin
◎编  剧 杰·朗吉诺 Jay Longino
       本大卫·格拉宾斯基 BenDavid Grabinski
◎演  员 成龙 Jackie Chan
       范冰冰 Bingbing Fan
       约翰尼·诺克斯维尔 Johnny Knoxville
       曾志伟 Eric Tsang
       王敏德 Michael Wong
       赵文瑄 Winston Chao
       伊芙·托雷斯 Eve Torres
       郭品超 Dylan Kuo
       施诗 Shi Shi
       延政勋 Jeong-hun Yeon
       张蓝心 Lanxin Zhang
       吉丽 Lily Ji
       托马尔·奥兹 Tomer Oz
       保罗·菲利普·克拉克 Paul Philip Clark
       吴耀汉 Richard Ng
       勃小龙 Pierre Bourdaud
       麦贵源 Kwai Yuen Mak
       蔡佳涵 Jiahan Cai
       邱意浓 Sabrina Qiu
       汪小敏 Xiaomin Wang
       马铁摩 Temur Mamisashvili
       孙慧莲 Wai Lin Sun
       李敏 Min Li
       魏允熙 Yunxi Wei
       赵佳霖 Jialin Zhao
       陈志英 Chi Ying Chan
       陈国雄 Kwok Hung Chan
       许宏宇 Derek Hui
       吴芊霈 Goh Shinpooi
       白伊廷 Crystal Pa
       白声强 Shengqiang Bai
       石占杰 Zhanjie Shi
       李季夫 Jifu Li
       安德鲁·达兹 Andrew Dasz
◎标  签 行动 / 笑剧 / 搞笑 / 功夫 / 香港 / 中国 / 2016 / 冒险
◎简  介
  香港捕快陈港生(成龙饰)跟踪黑道老迈维克多·王(赵文瑄饰)长达十数年,为汇集他犯罪证据而被卷入一场“计入彀”中,还将自己的侄女白舒(范冰冰饰)牵扯进来。在这场被中国特警、维克多·王、俄罗斯黑帮三面夹攻的“绝地流亡”中,班尼结识了共磨难的最好拍档康纳(约翰尼·诺克斯维尔饰),一位正被维克多·王和俄国杀手追捕逃命的美国赌博高手,三人终极将怎样竣事这场冒险变得扑朔迷离。
  1. ##### MediaInfo ######
  2. General
  3. Unique ID                                : 240255459230895948585986766831391428373 (0xB4BF84B0D9CD7A61B381BEEF783D4F15)
  4. Complete name                            : Skiptrace.2016.BluRay.1080p.DTS-HD.MA5.1.x265.10bit-ALT.mkv
  5. Format                                   : Matroska
  6. Format version                           : Version 4
  7. File size                                : 7.30 GiB
  8. Duration                                 : 1 h 47 min
  9. Overall bit rate mode                    : Variable
  10. Overall bit rate                         : 9 758 kb/s
  11. Encoded date                             : UTC 2022-01-21 11:41:14
  12. Writing application                      : mkvmerge v49.0.0 ('Sick Of Losing Soulmates') 64-bit
  13. Writing library                          : libebml v1.4.0 + libmatroska v1.6.1
  14. Video
  15. ID                                       : 1
  16. Format                                   : HEVC
  17. Format/Info                              : High Efficiency Video Coding
  18. Format profile                           : Main [email protected]@High
  19. Codec ID                                 : V_MPEGH/ISO/HEVC
  20. Duration                                 : 1 h 47 min
  21. Bit rate                                 : 6 482 kb/s
  22. Width                                    : 1 920 pixels
  23. Height                                   : 800 pixels
  24. Display aspect ratio                     : 2.40:1
  25. Frame rate mode                          : Constant
  26. Frame rate                               : 23.976 (24000/1001/53875) FPS
  27. Color space                              : YUV
  28. Chroma subsampling                       : 4:2:0
  29. Bit depth                                : 10 bits
  30. Bits/(Pixel*Frame)                       : 0.176
  31. Stream size                              : 4.85 GiB (66%)
  32. Title                                    : HEVC, [email protected]@High, 24/1.001 fps @ 6482 kbps
  33. Writing library                          : x265 3.4+14-gd419c7152:[Windows][GCC 10.2.0][64 bit] 10bit
  34. Encoding settings                        : cpuid=538751049583 / frame-threads=2 / numa-pools=4 / wpp / pmode / pme / no-psnr / no-ssim / log-level=2 / input-csp=1 / input-res=1920x800 / interlace=0 / total-frames=154147 / level-idc=51 / high-tier=1 / uhd-bd=0 / ref=5 / no-allow-non-conformance / no-repeat-headers / annexb / no-aud / no-hrd / info / hash=0 / no-temporal-layers / open-gop / min-keyint=24 / keyint=240 / gop-lookahead=0 / bframes=6 / b-adapt=2 / b-pyramid / bframe-bias=0 / rc-lookahead=40 / lookahead-slices=0 / NTM4NzU=uuDQuD2mJt9fsCf / scenecut=40 / hist-scenecut=0 / radl=0 / no-splice / no-intra-refresh / ctu=32 / min-cu-size=8 / no-rect / no-amp / max-tu-size=32 / tu-inter-depth=3 / tu-intra-depth=3 / limit-tu=4 / rdoq-level=2 / dynamic-rd=0.00 / no-ssim-rd / signhide / no-tskip / nr-intra=0 / nr-inter=0 / no-constrained-intra / no-strong-intra-smoothing / max-merge=4 / limit-refs=1 / limit-modes / me=3 / subme=4 / merange=25 / temporal-mvp / no-frame-dup / no-hme / weightp / weightb / no-analyze-src-pics / deblock=-3:-3 / no-sao / no-sao-non-deblock / rd=6 / selective-sao=0 / no-early-skip / rskip / no-fast-intra / no-tskip-fast / no-cu-lossless / b-intra / no-splitrd-skip / rdpenalty=0 / psy-rd=2.00 / psy-rdoq=1.00 / no-rd-refine / no-lossless / cbqpoffs=0 / crqpoffs=0 / rc=crf / crf=17.0 / qcomp=0.65 / qpstep=4 / stats-write=0 / stats-read=0 / vbv-maxrate=80000 / vbv-bufsize=80000 / vbv-init=0.9 / crf-max=0.0 / crf-min=0.0 / ipratio=1.40 / pbratio=1.30 / aq-mode=2 / aq-strength=0.85 / cutree / zone-count=0 / no-strict-cbr / qg-size=32 / no-rc-grain / qpmax=69 / qpmin=0 / no-const-vbv / sar=1 / overscan=0 / videoformat=5 / range=0 / colorprim=1 / transfer=1 / colormatrix=1 / chromaloc=0 / display-window=0 / cll=0,0 / min-luma=0 / max-luma=1023 / log2-max-poc-lsb=8 / vui-timing-info / vui-hrd-info / slices=1 / no-opt-qp-pps / no-opt-ref-list-length-pps / no-multi-pass-opt-rps / scenecut-bias=0.05 / hist-threshold=0.03 / no-opt-cu-delta-qp / no-aq-motion / no-hdr10 / no-hdr10-opt / no-dhdr10-opt / no-idr-recovery-sei / analysis-reuse-level=0 / analysis-save-reuse-level=0 / analysis-load-reuse-level=0 / scale-factor=0 / refine-intra=0 / refine-inter=0 / refine-mv=1 / refine-ctu-distortion=0 / no-limit-sao / ctu-info=0 / no-lowpass-dct / refine-analysis-type=0 / copy-pic=1 / max-ausize-factor=1.0 / no-dynamic-refine / no-single-sei / no-hevc-aq / no-svt / no-field / qp-adaptation-range=1.00 / no-scenecut-aware-qpconformance-window-offsets / right=0 / bottom=0 / NTM4NzU= / decoder-max-rate=0
  35. Language                                 : English
  36. Default                                  : Yes
  37. Forced                                   : No
  38. Color range                              : Limited
  39. Color primaries                          : BT.709
  40. Transfer characteristics                 : BT.709
  41. Matrix coefficients                      : BT.709
  42. Audio #1
  43. ID                                       : 2
  44. Format                                   : DTS XLL
  45. Format/Info                              : Digital Theater Systems
  46. Commercial name                          : DTS-HD Master Audio
  47. Codec ID                                 : A_DTS
  48. Duration                                 : 1 h 47 min
  49. Bit rate mode                            : Variable
  50. Bit rate                                 : 3 006 kb/s
  51. Channel(s)                               : 6 channels
  52. Channel layout                           : C L R Ls Rs LFE
  53. Sampling rate                            : 48.0 kHz
  54. Frame rate                               : 93.750 FPS (512 SPF)
  55. Bit depth                                : 24 bits
  56. Compression mode                         : Lossless
  57. Stream size                              : 2.25 GiB (31%)
  58. Title                                    : English DTS-HD Master Audio 5.1 @ 3006 kbps
  59. Language                                 : English
  60. Default                                  : Yes
  61. Forced                                   : No
  62. Audio #2
  63. ID                                       : 3
  64. Format                                   : AC-3
  65. Format/Info                              : Audio Coding 3
  66. Commercial name                          : Dolby Digital
  67. Codec ID                                 : A_AC3
  68. Duration                                 : 1 h 47 min
  69. Bit rate mode                            : Constant
  70. Bit rate                                 : 192 kb/s
  71. Channel(s)                               : 2 channels
  72. Channel layout                           : L R
  73. Sampling rate                            : 48.0 kHz
  74. Frame rate                               : 31.250 FPS (1536 SPF)
  75. Compression mode                         : Lossy
  76. Stream size                              : 147 MiB (2%)
  77. Title                                    : English Dolby Digital Audio 2.0 @ 192 kbps  Commentary
  78. Language                                 : English
  79. Service kind                             : Complete Main
  80. Default                                  : No
  81. Forced                                   : No
  82. Text #1
  83. ID                                       : 4
  84. Format                                   : PGS
  85. Codec ID                                 : S_HDMV/PGS
  86. Codec ID/Info                            : Picture based subtitle format used on BDs/HD-DVDs
  87. Duration                                 : 1 h 46 min
  88. Bit rate                                 : 36.0 kb/s
  89. Count of elements                        : 2836
  90. Stream size                              : 27.3 MiB (0%)
  91. Title                                    : Eng/SUP
  92. Language                                 : English
  93. Default                                  : No
  94. Forced                                   : No
  95. Text #2
  96. ID                                       : 5
  97. Format                                   : PGS
  98. Codec ID                                 : S_HDMV/PGS
  99. Codec ID/Info                            : Picture based subtitle format used on BDs/HD-DVDs
  100. Duration                                 : 1 h 45 min
  101. Bit rate                                 : 19.1 kb/s
  102. Count of elements                        : 1881
  103. Stream size                              : 14.5 MiB (0%)
  104. Title                                    : Chs/SUP  简体
  105. Language                                 : Chinese
  106. Default                                  : Yes
  107. Forced                                   : No
  108. Text #3
  109. ID                                       : 6
  110. Format                                   : PGS
  111. Codec ID                                 : S_HDMV/PGS
  112. Codec ID/Info                            : Picture based subtitle format used on BDs/HD-DVDs
  113. Duration                                 : 1 h 45 min
  114. Bit rate                                 : 19.4 kb/s
  115. Count of elements                        : 1881
  116. Stream size                              : 14.7 MiB (0%)
  117. Title                                    : Cht/SUP  繁体
  118. Language                                 : Chinese
  119. Default                                  : No
  120. Forced                                   : No
  121. Menu
  122. 00:00:00.000                             : en:第 01 章
  123. 00:00:11.136                             : en:第 02 章
  124. 00:06:02.821                             : en:第 03 章
  125. 00:13:02.699                             : en:第 04 章
  126. 00:19:53.484                             : en:第 05 章
  127. 00:27:13.549                             : en:第 06 章
  128. 00:34:26.398                             : en:第 07 章
  129. 00:41:57.390                             : en:第 08 章
  130. 00:48:39.875                             : en:第 09 章
  131. 00:55:18.190                             : en:第 10 章
  132. 01:02:17.359                             : en:第 11 章
  133. 01:09:40.885                             : en:第 12 章
  134. 01:17:10.751                             : en:第 13 章
  135. 01:22:55.053                             : en:第 14 章
  136. 01:29:52.012                             : en:第 15 章
  137. 01:37:32.472                             : en:第 16 章
  138. 01:43:03.552                             : en:第 17 章
复制代码

















保举请利用qBittorrent,utorrent,transmission等标准BT软件下载!以获得最快速度。奉求保种!





回复

使用道具 举报

懒得打字嘛,点击右侧快捷回复 【右侧内容,后台自定义】
您需要登录后才可以回帖 登录 | 立即加入

本版积分规则

Archiver|小黑屋| 蓝光电影网 |网站地图

Copyright © 2021 Comsenz Inc. Powered by 蓝光电影网

蓝光电影网

本站内容由用户自主分享和转载自互联网,转载目的在于传递更多信息,并不代表本网赞同其观点和对其真实性负责。

如有侵权、违反国家法律政策行为,请联系我们,我们会第一时间及时清除和处理!

举报反馈邮箱:[email protected]

快速回复 返回顶部 返回列表