找回密码

蓝光电影网

查看: 44|回复: 0

[剧情] 航班蛇患[国英多音轨/简繁英双语字幕].Snakes.on.a.Plane.2006.BluRay.1080p.2Audio.TrueHD.5.1.x265.10bit-ALT 9.93GB

[复制链接]
蓝光币
7
发表于 2022-7-29 18:49:43 | 显示全部楼层 |阅读模式


◎标  题 航班蛇患
◎译  名 空中蛇灾 / 毒蛇航班 / 蛇袭航班 / 飞机上有蛇 / 毒蛇吓机
◎片  名 Snakes on a Plane
◎年  代 2006
◎产  地 美国 / 德国
◎类  别 行动 / 惊悚 / 灾难
◎语  言 英语
◎上映日期 2006-08-18
◎IMDb评分 5.4/10 (136751人评价)
◎IMDb链接 https://www.imdb.com/title/tt0417148/
◎豆瓣评分 6.2/10 (19167人评价)
◎豆瓣链接 https://movie.douban.com/subject/1482080/
◎片  长 105 分钟
◎导  演 大卫·R·艾里斯 David R. Ellis
◎编  剧 塞巴斯蒂安·古提耶雷兹 Sebastian Gutierrez
◎演  员 塞缪尔·杰克逊 Samuel L. Jackson
       朱丽安娜· 玛格丽丝 Julianna Margulies
       内森·菲利普斯 Nathan Phillips
       雷切尔·布兰卡德 Rachel Blanchard
       福勒克斯·亚历山大 Flex Alexander
       基南·汤普森 Kenan Thompson
       凯斯·达拉斯 Keith Dallas
       林·沙烨 Lin Shaye
       布鲁斯·詹姆斯 Bruce James
       桑妮·马布雷 Sunny Mabrey
       凯西·迪布瓦 Casey Dubois
       杰拉德·普伦科特 Gerard Plunkett
       特瑞·陈 Terry Chen
       埃尔莎·帕塔奇 Elsa Pataky
       艾米莉·霍尔姆斯 Emily Holmes
       泰格·伦岩 Tygh Runyan
       大卫·科恩查内 David Koechner
       鲍比·坎纳瓦尔 Bobby Cannavale
       托德·路易斯 Todd Louiso
       汤姆·巴特勒 Tom Butler
       肯德尔·克洛斯 Kendall Cross
       凯文·麦克纳尔蒂 Kevin McNulty
       泰勒·克奇 Taylor Kitsch
       拜伦·劳森 Byron Lawson
       克瑞斯塔尔·洛维 Crystal Lowe
       阿加·达什 Agam Darshi
       丽莎·玛丽·卡鲁克 Lisa Marie Caruk
       关永扬 Darryl Quon
       戴维·尼尔 David Neale
       Mi-Jung Lee Mi-Jung Lee
       凯尔·阿里沙兰 Kyle Alisharan
       Drew Wicks Drew Wicks
       莱斯利·阿莱特 Lesley Aletter
       马特·贝克 Matt Baker
       帕丽斯·希尔顿 Paris Hilton
       罗凯利 R. Kelly
       Chris Taloa Chris Taloa
◎标  签 惊悚 / 灾难 / 美国 / 可骇 / 蛇 / 美国电影 / 2006 / 蛇患航班
◎简  介
    黑帮老迈艾迪•金策划了一路凶杀案,被偶然途经的年轻人西恩•琼斯(Nathan Phillips 饰)目击。为了在法庭上成功控告这个作恶多真个黑社会头子,警方派出资深联邦密探尼维利•费恩(Samuel L. Jackson 饰)负责庇护西恩,并将其从夏威夷护送至洛杉矶法庭。为避免证人遇害,尼维利采纳声东击西的战略,与西恩偷偷乘上一架普通的红眼航班。                                                                      但是这项绝密的计划被艾迪放置在警方的内奸获知,为了逃走法令制裁,艾迪派出照顾大量毒蛇的杀手登上飞机,一场古怪可骇的血腥灭口案件就此展开……
  1. ##### MediaInfo ######
  2. General
  3. Unique ID                                : 293244742397875923067508110917455606685 (0xDC9CE20F0755CFC4FDF13C15027C739D)
  4. Complete name                            : Snakes.on.a.Plane.2006.BluRay.1080p.2Audio.TrueHD.5.1.x265.10bit-ALT.mkv
  5. Format                                   : Matroska
  6. Format version                           : Version 4
  7. File size                                : 9.93 GiB
  8. Duration                                 : 1 h 45 min
  9. Overall bit rate mode                    : Variable
  10. Overall bit rate                         : 13.5 Mb/s
  11. Encoded date                             : UTC 2022-02-23 10:46:36
  12. Writing application                      : mkvmerge v49.0.0 ('Sick Of Losing Soulmates') 64-bit
  13. Writing library                          : libebml v1.4.0 + libmatroska v1.6.1
  14. Video
  15. ID                                       : 1
  16. Format                                   : HEVC
  17. Format/Info                              : High Efficiency Video Coding
  18. Format profile                           : Main [email protected]@High
  19. Codec ID                                 : V_MPEGH/ISO/HEVC
  20. Duration                                 : 1 h 45 min
  21. Bit rate                                 : 11.1 Mb/s
  22. Width                                    : 1 920 pixels
  23. Height                                   : 816 pixels
  24. Display aspect ratio                     : 2.35:1
  25. Frame rate mode                          : Constant
  26. Frame rate                               : 23.976 (24000/1001/53875) FPS
  27. Color space                              : YUV
  28. Chroma subsampling                       : 4:2:0
  29. Bit depth                                : 10 bits
  30. Bits/(Pixel*Frame)                       : 0.294
  31. Stream size                              : 8.16 GiB (82%)
  32. Title                                    : HEVC, [email protected]@High, 24/1.001 fps @ 11055 kbps
  33. Writing library                          : x265 3.4+14-gd419c7152:[Windows][GCC 10.2.0][64 bit] 10bit
  34. Encoding settings                        : cpuid=538751111039 / frame-threads=4 / numa-pools=16 / wpp / pmode / pme / no-psnr / no-ssim / log-level=2 / input-csp=1 / input-res=1920x816 / interlace=0 / total-frames=151960 / level-idc=51 / high-tier=1 / uhd-bd=0 / ref=5 / no-allow-non-conformance / no-repeat-headers / annexb / no-aud / no-hrd / info / hash=0 / no-temporal-layers / open-gop / min-keyint=24 / keyint=240 / gop-lookahead=0 / bframes=6 / b-adapt=2 / b-pyramid / bframe-bias=0 / rc-lookahead=40 / lookahead-slices=0 / NTM4NzU=uuDQuD2mJt9fsCf / scenecut=40 / hist-scenecut=0 / radl=0 / no-splice / no-intra-refresh / ctu=32 / min-cu-size=8 / no-rect / no-amp / max-tu-size=32 / tu-inter-depth=3 / tu-intra-depth=3 / limit-tu=4 / rdoq-level=2 / dynamic-rd=0.00 / no-ssim-rd / signhide / no-tskip / nr-intra=0 / nr-inter=0 / no-constrained-intra / no-strong-intra-smoothing / max-merge=4 / limit-refs=1 / limit-modes / me=3 / subme=4 / merange=25 / temporal-mvp / no-frame-dup / no-hme / weightp / weightb / no-analyze-src-pics / deblock=-3:-3 / no-sao / no-sao-non-deblock / rd=6 / selective-sao=0 / no-early-skip / rskip / no-fast-intra / no-tskip-fast / no-cu-lossless / b-intra / no-splitrd-skip / rdpenalty=0 / psy-rd=2.00 / psy-rdoq=1.00 / no-rd-refine / no-lossless / cbqpoffs=0 / crqpoffs=0 / rc=crf / crf=17.0 / qcomp=0.65 / qpstep=4 / stats-write=0 / stats-read=0 / vbv-maxrate=80000 / vbv-bufsize=80000 / vbv-init=0.9 / crf-max=0.0 / crf-min=0.0 / ipratio=1.40 / pbratio=1.30 / aq-mode=2 / aq-strength=0.85 / cutree / zone-count=0 / no-strict-cbr / qg-size=32 / no-rc-grain / qpmax=69 / qpmin=0 / no-const-vbv / sar=1 / overscan=0 / videoformat=5 / range=0 / colorprim=1 / transfer=1 / colormatrix=1 / chromaloc=0 / display-window=0 / cll=0,0 / min-luma=0 / max-luma=1023 / log2-max-poc-lsb=8 / vui-timing-info / vui-hrd-info / slices=1 / no-opt-qp-pps / no-opt-ref-list-length-pps / no-multi-pass-opt-rps / scenecut-bias=0.05 / hist-threshold=0.03 / no-opt-cu-delta-qp / no-aq-motion / no-hdr10 / no-hdr10-opt / no-dhdr10-opt / no-idr-recovery-sei / analysis-reuse-level=0 / analysis-save-reuse-level=0 / analysis-load-reuse-level=0 / scale-factor=0 / refine-intra=0 / refine-inter=0 / refine-mv=1 / refine-ctu-distortion=0 / no-limit-sao / ctu-info=0 / no-lowpass-dct / refine-analysis-type=0 / copy-pic=1 / max-ausize-factor=1.0 / no-dynamic-refine / no-single-sei / no-hevc-aq / no-svt / no-field / qp-adaptation-range=1.00 / no-scenecut-aware-qpconformance-window-offsets / right=0 / bottom=0 / NTM4NzU= / decoder-max-rate=0
  35. Language                                 : English
  36. Default                                  : Yes
  37. Forced                                   : No
  38. Color range                              : Limited
  39. Color primaries                          : BT.709
  40. Transfer characteristics                 : BT.709
  41. Matrix coefficients                      : BT.709
  42. Audio #1
  43. ID                                       : 2
  44. Format                                   : MLP FBA
  45. Format/Info                              : Meridian Lossless Packing FBA
  46. Commercial name                          : Dolby TrueHD
  47. Codec ID                                 : A_TRUEHD
  48. Duration                                 : 1 h 45 min
  49. Bit rate mode                            : Variable
  50. Bit rate                                 : 1 818 kb/s
  51. Maximum bit rate                         : 3 366 kb/s
  52. Channel(s)                               : 6 channels
  53. Channel layout                           : L R C LFE Ls Rs
  54. Sampling rate                            : 48.0 kHz
  55. Frame rate                               : 1 200.000 FPS (40 SPF)
  56. Compression mode                         : Lossless
  57. Stream size                              : 1.34 GiB (14%)
  58. Title                                    : English Dolby TrueHD 5.1 @ 1818 kbps
  59. Language                                 : English
  60. Default                                  : Yes
  61. Forced                                   : No
  62. Audio #2
  63. ID                                       : 3
  64. Format                                   : AC-3
  65. Format/Info                              : Audio Coding 3
  66. Commercial name                          : Dolby Digital
  67. Codec ID                                 : A_AC3
  68. Duration                                 : 1 h 45 min
  69. Bit rate mode                            : Constant
  70. Bit rate                                 : 384 kb/s
  71. Channel(s)                               : 6 channels
  72. Channel layout                           : L R C LFE Ls Rs
  73. Sampling rate                            : 48.0 kHz
  74. Frame rate                               : 31.250 FPS (1536 SPF)
  75. Compression mode                         : Lossy
  76. Stream size                              : 290 MiB (3%)
  77. Title                                    : Mandarin Dolby Digital Audio 5.1 @ 384 kbps
  78. Language                                 : Chinese
  79. Service kind                             : Complete Main
  80. Default                                  : No
  81. Forced                                   : No
  82. Text #1
  83. ID                                       : 4
  84. Format                                   : PGS
  85. Codec ID                                 : S_HDMV/PGS
  86. Codec ID/Info                            : Picture based subtitle format used on BDs/HD-DVDs
  87. Duration                                 : 1 h 42 min
  88. Bit rate                                 : 30.6 kb/s
  89. Count of elements                        : 2460
  90. Stream size                              : 22.5 MiB (0%)
  91. Title                                    : Eng/SUP
  92. Language                                 : English
  93. Default                                  : No
  94. Forced                                   : No
  95. Text #2
  96. ID                                       : 5
  97. Format                                   : PGS
  98. Codec ID                                 : S_HDMV/PGS
  99. Codec ID/Info                            : Picture based subtitle format used on BDs/HD-DVDs
  100. Duration                                 : 1 h 45 min
  101. Bit rate                                 : 46.6 kb/s
  102. Count of elements                        : 2976
  103. Stream size                              : 35.1 MiB (0%)
  104. Title                                    : Chs/SUP  简英双语
  105. Language                                 : Chinese
  106. Default                                  : Yes
  107. Forced                                   : No
  108. Text #3
  109. ID                                       : 6
  110. Format                                   : PGS
  111. Codec ID                                 : S_HDMV/PGS
  112. Codec ID/Info                            : Picture based subtitle format used on BDs/HD-DVDs
  113. Duration                                 : 1 h 45 min
  114. Bit rate                                 : 49.5 kb/s
  115. Count of elements                        : 2976
  116. Stream size                              : 37.3 MiB (0%)
  117. Title                                    : Cht/SUP  繁英双语
  118. Language                                 : Chinese
  119. Default                                  : No
  120. Forced                                   : No
  121. Menu
  122. 00:00:00.000                             : :绗?01 绔?
  123. 00:03:11.108                             : :绗?02 绔?
  124. 00:09:23.772                             : :绗?03 绔?
  125. 00:14:07.221                             : :绗?04 绔?
  126. 00:21:16.734                             : :绗?05 绔?
  127. 00:27:24.476                             : :绗?06 绔?
  128. 00:37:30.999                             : :绗?07 绔?
  129. 00:45:35.608                             : :绗?08 绔?
  130. 00:52:19.386                             : :绗?09 绔?
  131. 00:56:05.529                             : :绗?10 绔?
  132. 01:01:23.388                             : :绗?11 绔?
  133. 01:09:40.009                             : :绗?12 绔?
  134. 01:15:36.574                             : :绗?13 绔?
  135. 01:21:02.900                             : :绗?14 绔?
  136. 01:24:08.669                             : :绗?15 绔?
  137. 01:29:43.003                             : :绗?16 绔?
  138. 01:34:08.309                             : :绗?17 绔?
  139. 01:39:23.166                             : :绗?18 绔?
复制代码

















保举请利用qBittorrent,utorrent,transmission等标准BT软件下载!以获得最快速度。奉求保种!





回复

使用道具 举报

懒得打字嘛,点击右侧快捷回复 【右侧内容,后台自定义】
您需要登录后才可以回帖 登录 | 立即加入

本版积分规则

Archiver|小黑屋| 蓝光电影网 |网站地图

Copyright © 2021 Comsenz Inc. Powered by 蓝光电影网

蓝光电影网

本站内容由用户自主分享和转载自互联网,转载目的在于传递更多信息,并不代表本网赞同其观点和对其真实性负责。

如有侵权、违反国家法律政策行为,请联系我们,我们会第一时间及时清除和处理!

举报反馈邮箱:[email protected]

快速回复 返回顶部 返回列表