找回密码

蓝光电影网

查看: 159|回复: 1

[剧情] 欢乐好声音2[简繁英双语字幕].Sing.2.2021.BluRay.1080p.TrueHD.Atmos.7.1.x265.10bit-ALT 10.43GB

[复制链接]
蓝光币
8
发表于 2022-7-29 18:49:44 | 显示全部楼层 |阅读模式


◎标  题 欢乐好声音2
◎译  名 星梦动物园2(港)
◎片  名 Sing 2
◎年  代 2021
◎产  地 美国
◎类  别 笑剧 / 动画 / 歌舞 / 冒险
◎语  言 英语
◎上映日期 2021-12-22(美国)
◎IMDb评分 7.5/10 (39285人评价)
◎IMDb链接 https://www.imdb.com/title/tt6467266/
◎豆瓣评分 7.1/10 (21890人评价)
◎豆瓣链接 https://movie.douban.com/subject/26962981/
◎片  长 110分钟
◎导  演 加斯·詹宁斯 Garth Jennings
       克里斯托夫·卢尔德莱 Christophe Lourdelet
◎编  剧 加斯·詹宁斯 Garth Jennings
◎演  员 马修·麦康纳 Matthew McConaughey
       瑞茜·威瑟斯彭 Reese Witherspoon
       塔伦·埃哲顿 Taron Egerton
       斯嘉丽·约翰逊 Scarlett Johansson
       托瑞·凯利 Tori Kelly
       尼克·克罗尔 Nick Kroll
       哈尔希 Halsey
       鲍比·坎纳瓦尔 Bobby Cannavale
       博诺 Bono
       加斯·詹宁斯 Garth Jennings
       珍妮弗·桑德斯 Jennifer Saunders
       切尔西·帕瑞蒂 Chelsea Peretti
       尼克·奥弗曼 Nick Offerman
       亚当·布克斯顿 Adam Buxton
       埃里克·安德烈 Eric André
       利蒂希娅·赖特 Letitia Wright
       法瑞尔·威廉姆斯 Pharrell Williams
       朱莉娅·戴维斯 Julia Davis
       彼得·塞拉菲诺威茨 Peter Serafinowicz
       韦斯·安德森 Wes Anderson
       凯茜·卡瓦蒂妮 Cathy Cavadini
       布莱恩·T·德莱尼 Brian T. Delaney
       亚伦·福尔斯 Aaron Fors
       朱莉安娜·甘米兹 Julianna Gamiz
       Aaron Hendry Aaron Hendry
       约翰·卡西尔 John Kassir
       丹尼·曼恩 Danny Mann
       斯科特·摩西尔 Scott Mosier
       克里斯·雷纳德 Chris Renaud
       詹森·舒瓦兹曼 Jason Schwartzman
       杰克·斯坦顿 Jack Stanton
       费舍·史蒂芬斯 Fisher Stevens
       塔拉·斯特朗 Tara Strong
       雷吉纳·托芬 Regina Taufen
       克莱特·惠特克 Colette Whitaker
       黛布拉·威尔逊 Debra Wilson
       埃德加·赖特 Edgar Wright
       斯派克·琼斯 Spike Jonze
       塞思·麦克法兰 Seth MacFarlane
◎简  介
  今年年末佳节,照明文娱全球卖座动画电影系列的全新篇章行将展开,有更巨大的胡想和更多超夯风行金曲。野心勃勃的无尾熊巴斯特穆恩,以及他旗下的全明星动物艺人,行将呈献史上最富丽刺眼的舞台大秀…而且是在残暴精明的天下文娱之都举行。可是有一个难关:他们必须先压服全天下最孤僻的摇滚巨星-由音乐传奇人物波诺首度为动画片献声表演-加入他们的表演行列。                                       
                                    巴斯特(金奖影帝马修麦康纳 配音)以及他旗下的艺人将他的新穆恩剧院,转酿成当地最火红的表演场地,可是他现在有一个更大的野心,那就是在光芒万丈的红滩市的克里斯托塔剧院,举行一场全新歌舞大秀的首演会。                                       
                                    完全没有任何文娱圈的人脉可言,巴斯特和他旗下的艺人-包括总是内心不安的猪妈妈萝希坦(金奖影后瑞丝薇斯朋 配音)、摇滚女豪猪爱希(史嘉蕾乔韩森 配音)、认真尽力的大猩猩强尼(泰隆艾格顿 配音)、外向害臊的大象米娜(托蕾凯莉 配...
  1. ##### MediaInfo ######
  2. General
  3. Unique ID                                : 290472998537967541143566809164713262994 (0xDA8710891A4EB3F2261E9E93EE277F92)
  4. Complete name                            : Sing.2.2021.BluRay.1080p.TrueHD.Atmos.7.1.x265.10bit-ALT.mkv
  5. Format                                   : Matroska
  6. Format version                           : Version 4
  7. File size                                : 10.4 GiB
  8. Duration                                 : 1 h 49 min
  9. Overall bit rate mode                    : Variable
  10. Overall bit rate                         : 13.6 Mb/s
  11. Movie name                               : Sing.2
  12. Encoded date                             : UTC 2022-03-25 08:48:16
  13. Writing application                      : mkvmerge v49.0.0 ('Sick Of Losing Soulmates') 64-bit
  14. Writing library                          : libebml v1.4.0 + libmatroska v1.6.1
  15. Video
  16. ID                                       : 1
  17. Format                                   : HEVC
  18. Format/Info                              : High Efficiency Video Coding
  19. Format profile                           : Main [email protected]@High
  20. Codec ID                                 : V_MPEGH/ISO/HEVC
  21. Duration                                 : 1 h 49 min
  22. Bit rate                                 : 9 578 kb/s
  23. Width                                    : 1 920 pixels
  24. Height                                   : 1 040 pixels
  25. Display aspect ratio                     : 1.85:1
  26. Frame rate mode                          : Constant
  27. Frame rate                               : 23.976 (24000/1001/53875) FPS
  28. Color space                              : YUV
  29. Chroma subsampling                       : 4:2:0
  30. Bit depth                                : 10 bits
  31. Bits/(Pixel*Frame)                       : 0.200
  32. Stream size                              : 7.35 GiB (70%)
  33. Title                                    : HEVC, [email protected]@High, 24/1.001 fps @ 9577 kbps
  34. Writing library                          : x265 3.5+36-1f2c8da77:[Windows][GCC 11.2.0][64 bit] 10bit
  35. Encoding settings                        : cpuid=538751111039 / frame-threads=4 / numa-pools=16 / wpp / pmode / pme / no-psnr / no-ssim / log-level=2 / input-csp=1 / input-res=1920x1040 / interlace=0 / total-frames=157992 / level-idc=51 / high-tier=1 / uhd-bd=0 / ref=5 / no-allow-non-conformance / no-repeat-headers / annexb / no-aud / no-eob / no-eos / no-hrd / info / hash=0 / no-temporal-layers / open-gop / min-keyint=24 / keyint=240 / gop-lookahead=0 / bframes=6 / b-adapt=2 / b-pyramid / bframe-bias=0 / rc-lookahead=40 / lookahead-slices=0 / NTM4NzU=uuDQuD2mJt9fsCf / scenecut=40 / no-hist-scenecut / radl=0 / no-splice / no-intra-refresh / ctu=32 / min-cu-size=8 / no-rect / no-amp / max-tu-size=32 / tu-inter-depth=3 / tu-intra-depth=3 / limit-tu=4 / rdoq-level=2 / dynamic-rd=0.00 / no-ssim-rd / signhide / no-tskip / nr-intra=0 / nr-inter=0 / no-constrained-intra / no-strong-intra-smoothing / max-merge=4 / limit-refs=1 / limit-modes / me=3 / subme=4 / merange=25 / temporal-mvp / no-frame-dup / no-hme / weightp / weightb / no-analyze-src-pics / deblock=-3:-3 / no-sao / no-sao-non-deblock / rd=6 / selective-sao=0 / no-early-skip / rskip / no-fast-intra / no-tskip-fast / no-cu-lossless / b-intra / no-splitrd-skip / rdpenalty=0 / psy-rd=2.00 / psy-rdoq=1.00 / no-rd-refine / no-lossless / cbqpoffs=0 / crqpoffs=0 / rc=crf / crf=18.5 / qcomp=0.65 / qpstep=4 / stats-write=0 / stats-read=0 / vbv-maxrate=80000 / vbv-bufsize=80000 / vbv-init=0.9 / min-vbv-fullness=50.0 / max-vbv-fullness=80.0 / crf-max=0.0 / crf-min=0.0 / ipratio=1.40 / pbratio=1.30 / aq-mode=2 / aq-strength=0.85 / cutree / zone-count=0 / no-strict-cbr / qg-size=32 / no-rc-grain / qpmax=69 / qpmin=0 / no-const-vbv / sar=1 / overscan=0 / videoformat=5 / range=0 / colorprim=1 / transfer=1 / colormatrix=1 / chromaloc=0 / display-window=0 / cll=0,0 / min-luma=0 / max-luma=1023 / log2-max-poc-lsb=8 / vui-timing-info / vui-hrd-info / slices=1 / no-opt-qp-pps / no-opt-ref-list-length-pps / no-multi-pass-opt-rps / scenecut-bias=0.05 / hist-threshold=0.03 / no-opt-cu-delta-qp / no-aq-motion / no-hdr10 / no-hdr10-opt / no-dhdr10-opt / no-idr-recovery-sei / analysis-reuse-level=0 / analysis-save-reuse-level=0 / analysis-load-reuse-level=0 / scale-factor=0 / refine-intra=0 / refine-inter=0 / refine-mv=1 / refine-ctu-distortion=0 / no-limit-sao / ctu-info=0 / no-lowpass-dct / refine-analysis-type=0 / copy-pic=1 / max-ausize-factor=1.0 / no-dynamic-refine / no-single-sei / no-hevc-aq / no-svt / no-field / qp-adaptation-range=1.00 / scenecut-aware-qp=0conformance-window-offsets / right=0 / bottom=0 / NTM4NzU= / decoder-max-rate=0 / no-vbv-live-multi-pass
  36. Language                                 : English
  37. Default                                  : Yes
  38. Forced                                   : No
  39. Color range                              : Limited
  40. Color primaries                          : BT.709
  41. Transfer characteristics                 : BT.709
  42. Matrix coefficients                      : BT.709
  43. Audio #1
  44. ID                                       : 2
  45. Format                                   : MLP FBA 16-ch
  46. Format/Info                              : Meridian Lossless Packing FBA with 16-channel presentation
  47. Commercial name                          : Dolby TrueHD with Dolby Atmos
  48. Codec ID                                 : A_TRUEHD
  49. Duration                                 : 1 h 49 min
  50. Bit rate mode                            : Variable
  51. Bit rate                                 : 3 227 kb/s
  52. Maximum bit rate                         : 4 986 kb/s
  53. Channel(s)                               : 8 channels
  54. Channel layout                           : L R C LFE Ls Rs Lb Rb
  55. Sampling rate                            : 48.0 kHz
  56. Frame rate                               : 1 200.000 FPS (40 SPF)
  57. Compression mode                         : Lossless
  58. Stream size                              : 2.48 GiB (24%)
  59. Title                                    : English Dolby TrueHD 7.1 (Atmos) @ 3675 kbps
  60. Language                                 : English
  61. Default                                  : Yes
  62. Forced                                   : No
  63. Number of dynamic objects                : 11
  64. Bed channel count                        : 1 channel
  65. Bed channel configuration                : LFE
  66. Audio #2
  67. ID                                       : 3
  68. Format                                   : AC-3
  69. Format/Info                              : Audio Coding 3
  70. Commercial name                          : Dolby Digital
  71. Codec ID                                 : A_AC3
  72. Duration                                 : 1 h 49 min
  73. Bit rate mode                            : Constant
  74. Bit rate                                 : 448 kb/s
  75. Channel(s)                               : 6 channels
  76. Channel layout                           : L R C LFE Ls Rs
  77. Sampling rate                            : 48.0 kHz
  78. Frame rate                               : 31.250 FPS (1536 SPF)
  79. Compression mode                         : Lossy
  80. Stream size                              : 352 MiB (3%)
  81. Title                                    : English Dolby 5.1-EX 5.1 @ 640 kbps
  82. Language                                 : English
  83. Service kind                             : Complete Main
  84. Default                                  : No
  85. Forced                                   : No
  86. Text #1
  87. ID                                       : 4
  88. Format                                   : PGS
  89. Codec ID                                 : S_HDMV/PGS
  90. Codec ID/Info                            : Picture based subtitle format used on BDs/HD-DVDs
  91. Duration                                 : 1 h 44 min
  92. Bit rate                                 : 56.6 kb/s
  93. Count of elements                        : 3729
  94. Stream size                              : 42.1 MiB (0%)
  95. Title                                    : Eng/SUP
  96. Language                                 : English
  97. Default                                  : No
  98. Forced                                   : No
  99. Text #2
  100. ID                                       : 5
  101. Format                                   : PGS
  102. Codec ID                                 : S_HDMV/PGS
  103. Codec ID/Info                            : Picture based subtitle format used on BDs/HD-DVDs
  104. Duration                                 : 1 h 44 min
  105. Bit rate                                 : 43.2 kb/s
  106. Count of elements                        : 3750
  107. Stream size                              : 32.3 MiB (0%)
  108. Title                                    : Chs/SUP  简体
  109. Language                                 : Chinese
  110. Default                                  : Yes
  111. Forced                                   : No
  112. Text #3
  113. ID                                       : 6
  114. Format                                   : PGS
  115. Codec ID                                 : S_HDMV/PGS
  116. Codec ID/Info                            : Picture based subtitle format used on BDs/HD-DVDs
  117. Duration                                 : 1 h 44 min
  118. Bit rate                                 : 44.4 kb/s
  119. Count of elements                        : 3750
  120. Stream size                              : 33.2 MiB (0%)
  121. Title                                    : Cht/SUP  繁体
  122. Language                                 : Chinese
  123. Default                                  : No
  124. Forced                                   : No
  125. Text #4
  126. ID                                       : 7
  127. Format                                   : PGS
  128. Codec ID                                 : S_HDMV/PGS
  129. Codec ID/Info                            : Picture based subtitle format used on BDs/HD-DVDs
  130. Duration                                 : 1 h 43 min
  131. Bit rate                                 : 74.1 kb/s
  132. Count of elements                        : 2371
  133. Stream size                              : 55.1 MiB (1%)
  134. Title                                    : Chs/SUP  简英双语
  135. Language                                 : Chinese
  136. Default                                  : No
  137. Forced                                   : No
  138. Text #5
  139. ID                                       : 8
  140. Format                                   : PGS
  141. Codec ID                                 : S_HDMV/PGS
  142. Codec ID/Info                            : Picture based subtitle format used on BDs/HD-DVDs
  143. Duration                                 : 1 h 43 min
  144. Bit rate                                 : 75.0 kb/s
  145. Count of elements                        : 2371
  146. Stream size                              : 55.8 MiB (1%)
  147. Title                                    : Cht/SUP  繁英双语
  148. Language                                 : Chinese
  149. Default                                  : No
  150. Forced                                   : No
  151. Menu
  152. 00:00:00.000                             : en:第 01 章
  153. 00:08:24.295                             : en:第 02 章
  154. 00:13:17.922                             : en:第 03 章
  155. 00:19:34.298                             : en:第 04 章
  156. 00:26:43.936                             : en:第 05 章
  157. 00:30:54.978                             : en:第 06 章
  158. 00:36:01.326                             : en:第 07 章
  159. 00:44:23.411                             : en:第 08 章
  160. 00:49:44.273                             : en:第 09 章
  161. 00:53:43.679                             : en:第 10 章
  162. 01:00:07.771                             : en:第 11 章
  163. 01:07:04.979                             : en:第 12 章
  164. 01:12:47.738                             : en:第 13 章
  165. 01:20:12.391                             : en:第 14 章
  166. 01:24:46.707                             : en:第 15 章
  167. 01:27:38.295                             : en:第 16 章
  168. 01:30:30.884                             : en:第 17 章
  169. 01:33:26.726                             : en:第 18 章
  170. 01:38:09.592                             : en:第 19 章
  171. 01:42:08.289                             : en:第 20 章
复制代码

















保举请利用qBittorrent,utorrent,transmission等标准BT软件下载!以获得最快速度。奉求保种!





回复

使用道具 举报

蓝光币
68
发表于 2022-7-31 18:25:04 | 显示全部楼层

楼主,大恩不言谢了!蓝光电影网是最棒的!
回复 支持 反对

使用道具 举报

懒得打字嘛,点击右侧快捷回复 【右侧内容,后台自定义】
您需要登录后才可以回帖 登录 | 立即加入

本版积分规则

Archiver|小黑屋| 蓝光电影网 |网站地图

Copyright © 2021 Comsenz Inc. Powered by 蓝光电影网

蓝光电影网

本站内容由用户自主分享和转载自互联网,转载目的在于传递更多信息,并不代表本网赞同其观点和对其真实性负责。

如有侵权、违反国家法律政策行为,请联系我们,我们会第一时间及时清除和处理!

举报反馈邮箱:[email protected]

快速回复 返回顶部 返回列表