找回密码

蓝光电影网

查看: 44|回复: 0

[剧情] 信号 长期未解决事件搜查组 剧场版[繁英字幕].Signal.2021.BluRay.1080p.TrueHD.5.1.x265.10bit-ALT 7.50GB

[复制链接]
蓝光币
7
发表于 2022-7-29 18:49:55 | 显示全部楼层 |阅读模式


◎标  题 信号 持久未处理事务搜寻组 戏院版
◎译  名 解碼追兇 劇場版(港) / Gekijôban: Signal
◎片  名 劇場版 シグナル 長期未解決事务捜査班
◎年  代 2021
◎产  地 日本
◎类  别 剧情
◎语  言 日语
◎上映日期 2021-04-02(日本)
◎IMDb评分 6.5/10 (38人评价)
◎IMDb链接 https://www.imdb.com/title/tt13529316/
◎豆瓣评分 6.1/10 (769人评价)
◎豆瓣链接 https://movie.douban.com/subject/34947684/
◎片  长 122分钟
◎导  演 桥本一 Hajime Hashimoto
◎编  剧 仁志光佑 Kôsuke Nishi
◎演  员 坂口健太郎 Kentaro Sakaguchi
       北村一辉 Kazuki Kitamura
       吉濑美智子 Michiko Kichise
       木村佑一 Yûichi Kimura
       池田铁洋 Tetsuhiro Ikeda
       青野枫 Kaede Aono
       奈绪 Nao.
       伊原刚志 Tsuyoshi Ihara
       田中哲司 Tetsushi Tanaka
       杉本哲太 Tetta Sugimoto
       鹿贺丈史 Takeshi Kaga
◎标  签 日本 / 坂口健太郎 / 2021 / 北村一辉 / 吉濑美智子 / 犯罪 / 日本电影 / 日影
◎简  介
  影片是改编自2016年韩剧《信号》的同名日剧的电影版。2021年东京,政府高官死于高速公路上失控的租车激发的交通变乱。樱井率领的以三枝为首的持久未处理事务搜寻组思疑该事务是经过经心经营的。2009年东京也曾发生过政务官相继死于交通变乱的事务。那时差人都以意外变乱对外公布,只要大山思疑事务的实在性质。时候到了23点23分,不成能连上的无线通讯机竟再次鸣响!为了拯救有能够蒙受生物可骇主义威胁的日本,“现在”和“曩昔”的事务一路被卷入了更深的诡计当中。而三枝和樱井能否能成功在现今碰见大山?
  1. ##### MediaInfo ######
  2. General
  3. Unique ID                                : 113122603720447611629170490712867376920 (0x551A9EF926614347AA4BD8E4698A8F18)
  4. Complete name                            : Signal.2021.BluRay.1080p.TrueHD.5.1.x265.10bit-ALT.mkv
  5. Format                                   : Matroska
  6. Format version                           : Version 4
  7. File size                                : 7.50 GiB
  8. Duration                                 : 2 h 1 min
  9. Overall bit rate mode                    : Variable
  10. Overall bit rate                         : 8 808 kb/s
  11. Encoded date                             : UTC 2021-12-28 06:10:25
  12. Writing application                      : mkvmerge v49.0.0 ('Sick Of Losing Soulmates') 64-bit
  13. Writing library                          : libebml v1.4.0 + libmatroska v1.6.1
  14. Video
  15. ID                                       : 1
  16. Format                                   : HEVC
  17. Format/Info                              : High Efficiency Video Coding
  18. Format profile                           : Main [email protected]@High
  19. Codec ID                                 : V_MPEGH/ISO/HEVC
  20. Duration                                 : 2 h 1 min
  21. Bit rate                                 : 4 749 kb/s
  22. Width                                    : 1 920 pixels
  23. Height                                   : 1 038 pixels
  24. Display aspect ratio                     : 1.85:1
  25. Frame rate mode                          : Constant
  26. Frame rate                               : 24.000 FPS
  27. Color space                              : YUV
  28. Chroma subsampling                       : 4:2:0
  29. Bit depth                                : 10 bits
  30. Bits/(Pixel*Frame)                       : 0.099
  31. Stream size                              : 4.04 GiB (54%)
  32. Title                                    : HEVC, [email protected]@High, 24 fps @ 4748 kbps
  33. Writing library                          : x265 3.4+14-gd419c7152:[Windows][GCC 10.2.0][64 bit] 10bit
  34. Encoding settings                        : cpuid=538751111039 / frame-threads=4 / numa-pools=16 / wpp / pmode / pme / no-psnr / no-ssim / log-level=2 / input-csp=1 / input-res=1920x1038 / interlace=0 / total-frames=175426 / level-idc=51 / high-tier=1 / uhd-bd=0 / ref=5 / no-allow-non-conformance / no-repeat-headers / annexb / no-aud / no-hrd / info / hash=0 / no-temporal-layers / open-gop / min-keyint=24 / keyint=240 / gop-lookahead=0 / bframes=6 / b-adapt=2 / b-pyramid / bframe-bias=0 / rc-lookahead=40 / lookahead-slices=0 / NTM4NzU=uuDQuD2mJt9fsCf / scenecut=40 / hist-scenecut=0 / radl=0 / no-splice / no-intra-refresh / ctu=32 / min-cu-size=8 / no-rect / no-amp / max-tu-size=32 / tu-inter-depth=3 / tu-intra-depth=3 / limit-tu=4 / rdoq-level=2 / dynamic-rd=0.00 / no-ssim-rd / signhide / no-tskip / nr-intra=0 / nr-inter=0 / no-constrained-intra / no-strong-intra-smoothing / max-merge=4 / limit-refs=1 / limit-modes / me=3 / subme=4 / merange=25 / temporal-mvp / no-frame-dup / no-hme / weightp / weightb / no-analyze-src-pics / deblock=-3:-3 / no-sao / no-sao-non-deblock / rd=6 / selective-sao=0 / no-early-skip / rskip / no-fast-intra / no-tskip-fast / no-cu-lossless / b-intra / no-splitrd-skip / rdpenalty=0 / psy-rd=2.00 / psy-rdoq=1.00 / no-rd-refine / no-lossless / cbqpoffs=0 / crqpoffs=0 / rc=crf / crf=17.0 / qcomp=0.65 / qpstep=4 / stats-write=0 / stats-read=0 / vbv-maxrate=80000 / vbv-bufsize=80000 / vbv-init=0.9 / crf-max=0.0 / crf-min=0.0 / ipratio=1.40 / pbratio=1.30 / aq-mode=2 / aq-strength=0.85 / cutree / zone-count=0 / no-strict-cbr / qg-size=32 / no-rc-grain / qpmax=69 / qpmin=0 / no-const-vbv / sar=1 / overscan=0 / videoformat=5 / range=0 / colorprim=1 / transfer=1 / colormatrix=1 / chromaloc=0 / display-window=0 / cll=0,0 / min-luma=0 / max-luma=1023 / log2-max-poc-lsb=8 / vui-timing-info / vui-hrd-info / slices=1 / no-opt-qp-pps / no-opt-ref-list-length-pps / no-multi-pass-opt-rps / scenecut-bias=0.05 / hist-threshold=0.03 / no-opt-cu-delta-qp / no-aq-motion / no-hdr10 / no-hdr10-opt / no-dhdr10-opt / no-idr-recovery-sei / analysis-reuse-level=0 / analysis-save-reuse-level=0 / analysis-load-reuse-level=0 / scale-factor=0 / refine-intra=0 / refine-inter=0 / refine-mv=1 / refine-ctu-distortion=0 / no-limit-sao / ctu-info=0 / no-lowpass-dct / refine-analysis-type=0 / copy-pic=1 / max-ausize-factor=1.0 / no-dynamic-refine / no-single-sei / no-hevc-aq / no-svt / no-field / qp-adaptation-range=1.00 / no-scenecut-aware-qpconformance-window-offsets / right=0 / bottom=0 / NTM4NzU= / decoder-max-rate=0
  35. Language                                 : English
  36. Default                                  : Yes
  37. Forced                                   : No
  38. Color range                              : Limited
  39. Color primaries                          : BT.709
  40. Transfer characteristics                 : BT.709
  41. Matrix coefficients                      : BT.709
  42. Audio #1
  43. ID                                       : 2
  44. Format                                   : MLP FBA
  45. Format/Info                              : Meridian Lossless Packing FBA
  46. Commercial name                          : Dolby TrueHD
  47. Codec ID                                 : A_TRUEHD
  48. Duration                                 : 2 h 1 min
  49. Bit rate mode                            : Variable
  50. Bit rate                                 : 3 307 kb/s
  51. Maximum bit rate                         : 5 634 kb/s
  52. Channel(s)                               : 6 channels
  53. Channel layout                           : L R C LFE Ls Rs
  54. Sampling rate                            : 96.0 kHz
  55. Frame rate                               : 1 200.000 FPS (80 SPF)
  56. Compression mode                         : Lossless
  57. Stream size                              : 2.81 GiB (38%)
  58. Title                                    : Japanese Dolby TrueHD Audio 5.1 @ 3947 kbps
  59. Language                                 : Japanese
  60. Default                                  : Yes
  61. Forced                                   : No
  62. Audio #2
  63. ID                                       : 3
  64. Format                                   : AC-3
  65. Format/Info                              : Audio Coding 3
  66. Commercial name                          : Dolby Digital
  67. Codec ID                                 : A_AC3
  68. Duration                                 : 2 h 1 min
  69. Bit rate mode                            : Constant
  70. Bit rate                                 : 640 kb/s
  71. Channel(s)                               : 6 channels
  72. Channel layout                           : L R C LFE Ls Rs
  73. Sampling rate                            : 48.0 kHz
  74. Frame rate                               : 31.250 FPS (1536 SPF)
  75. Compression mode                         : Lossy
  76. Stream size                              : 558 MiB (7%)
  77. Title                                    : Japanese Dolby Digital Audio 5.1 @ 640 kbps
  78. Language                                 : Japanese
  79. Service kind                             : Complete Main
  80. Default                                  : No
  81. Forced                                   : No
  82. Text #1
  83. ID                                       : 4
  84. Format                                   : PGS
  85. Codec ID                                 : S_HDMV/PGS
  86. Codec ID/Info                            : Picture based subtitle format used on BDs/HD-DVDs
  87. Duration                                 : 1 h 57 min
  88. Bit rate                                 : 19.9 kb/s
  89. Count of elements                        : 2104
  90. Stream size                              : 16.7 MiB (0%)
  91. Title                                    : Cht/SUP  原盘繁体
  92. Language                                 : Chinese
  93. Default                                  : Yes
  94. Forced                                   : No
  95. Text #2
  96. ID                                       : 5
  97. Format                                   : PGS
  98. Codec ID                                 : S_HDMV/PGS
  99. Codec ID/Info                            : Picture based subtitle format used on BDs/HD-DVDs
  100. Duration                                 : 1 h 57 min
  101. Bit rate                                 : 25.3 kb/s
  102. Count of elements                        : 2106
  103. Stream size                              : 21.3 MiB (0%)
  104. Title                                    : Eng/SUP
  105. Language                                 : English
  106. Default                                  : No
  107. Forced                                   : No
  108. Menu
  109. 00:00:00.000                             : en:第 01 章
  110. 00:12:28.250                             : en:第 02 章
  111. 00:20:59.292                             : en:第 03 章
  112. 00:32:08.625                             : en:第 04 章
  113. 00:41:58.792                             : en:第 05 章
  114. 00:50:41.833                             : en:第 06 章
  115. 01:01:27.042                             : en:第 07 章
  116. 01:12:38.458                             : en:第 08 章
  117. 01:19:27.708                             : en:第 09 章
  118. 01:30:44.542                             : en:第 10 章
  119. 01:44:26.250                             : en:第 11 章
  120. 01:58:11.208                             : en:第 12 章
复制代码

















保举请利用qBittorrent,utorrent,transmission等标准BT软件下载!以获得最快速度。奉求保种!





回复

使用道具 举报

懒得打字嘛,点击右侧快捷回复 【右侧内容,后台自定义】
您需要登录后才可以回帖 登录 | 立即加入

本版积分规则

Archiver|小黑屋| 蓝光电影网 |网站地图

Copyright © 2021 Comsenz Inc. Powered by 蓝光电影网

蓝光电影网

本站内容由用户自主分享和转载自互联网,转载目的在于传递更多信息,并不代表本网赞同其观点和对其真实性负责。

如有侵权、违反国家法律政策行为,请联系我们,我们会第一时间及时清除和处理!

举报反馈邮箱:[email protected]

快速回复 返回顶部 返回列表