找回密码

蓝光电影网

查看: 264|回复: 0

[剧情] 新宿事件[粤语音轨/简繁英字幕].Shinjuku.Incident.2009.HK.BluRay.1080p.TrueHD.5.1.x265.10bit-ALT 12.50GB

[复制链接]
蓝光币
8
发表于 2022-7-29 18:49:57 | 显示全部楼层 |阅读模式


◎标  题 新宿事务
◎译  名 Shinjuku Incident
◎年  代 2009
◎产  地 中国香港
◎类  别 剧情 / 犯罪
◎语  言 汉语普通话 / 日语 / 粤语 / 英语 / 闽南语
◎上映日期 2009-04-02(中国香港)
◎IMDb评分 7/10 (12285人评价)
◎IMDb链接 https://www.imdb.com/title/tt1075419/
◎豆瓣评分 7.5/10 (120817人评价)
◎豆瓣链接 https://movie.douban.com/subject/2209368/
◎片  长 119 分钟
◎导  演 尔冬升 Tung-shing Yee
◎编  剧 尔冬升 Tung-shing Yee
       秦天南 Tin Nam Chun
◎演  员 成龙 Jackie Chan
       竹中直人 Naoto Takenaka
       吴彦祖 Daniel Wu
       徐静蕾 Jinglei Xu
       范冰冰 Bingbing Fan
       加藤雅也 Masaya Katô
       高捷 Jack Kao
       秦沛 Paul Chun
       林雪 Suet Lam
       仓田保昭 Yasuaki Kurata
       钱嘉乐 Kar Lok Chin
       峰岸彻 Tôru Minegishi
       姜丽文 Lesley Chiang
       高岛真一 Shinichi Takashinichi
       泽田谦也 Kenya Sawada
       叶山豪 Hayama Go
       黄伟辉 Wong Wai-Fai
       斋藤工 Takumi Saitô
       长门裕之 Hiroyuki Nagato
       卢惠光 Ken Lo
       汤怡 Kathy Tong
       庵原凉香 Ryôka Ihara
       连晋 Teddy Lin
◎标  签 成龙 / 黑帮 / 香港 / 吴彦祖 / 尔冬升 / 新宿事务 / 行动 / 犯罪
◎简  介
    20世纪90年月中国东北,铁头(成龙 饰)和女孩秀秀(徐静蕾 饰)两情相悦。未几,秀秀作为二战遗孤返回日本,今后杳无消息。挂念秀秀的铁头偷渡来至日本,投靠同乡阿杰(吴彦祖 饰),与一众华人偷渡客过着胆战心惊的黑工日子。                                                                      此时的秀秀已经更名结实,嫁给了日本黑帮三和会的若头江口利成(加藤雅也 饰)。亲目睹到这一幕的铁头意气消沉,自此决心想方设法赢利,留在日本。他们捞钱的手段很快触及到台南帮的好处,终极致使阿杰被斩断右手。铁头跟踪台南帮老迈高捷(高捷 饰),意外得知一场黑社会的好处仇杀诡计,他和一众朋友不成避免地卷入其中……
  1. ##### MediaInfo ######
  2. General
  3. Unique ID                                : 253380588606888375198437481683235247006 (0xBE9F5387E6DCA1A296854F3920B2139E)
  4. Complete name                            : Shinjuku.Incident.2009.HK.BluRay.1080p.TrueHD.5.1.x265.10bit-ALT.mkv
  5. Format                                   : Matroska
  6. Format version                           : Version 4
  7. File size                                : 12.5 GiB
  8. Duration                                 : 1 h 59 min
  9. Overall bit rate mode                    : Variable
  10. Overall bit rate                         : 15.0 Mb/s
  11. Encoded date                             : UTC 2022-01-18 06:58:43
  12. Writing application                      : mkvmerge v49.0.0 ('Sick Of Losing Soulmates') 64-bit
  13. Writing library                          : libebml v1.4.0 + libmatroska v1.6.1
  14. Video
  15. ID                                       : 1
  16. Format                                   : HEVC
  17. Format/Info                              : High Efficiency Video Coding
  18. Format profile                           : Main [email protected]@High
  19. Codec ID                                 : V_MPEGH/ISO/HEVC
  20. Duration                                 : 1 h 59 min
  21. Bit rate                                 : 11.4 Mb/s
  22. Width                                    : 1 920 pixels
  23. Height                                   : 816 pixels
  24. Display aspect ratio                     : 2.35:1
  25. Frame rate mode                          : Constant
  26. Frame rate                               : 24.000 FPS
  27. Color space                              : YUV
  28. Chroma subsampling                       : 4:2:0
  29. Bit depth                                : 10 bits
  30. Bits/(Pixel*Frame)                       : 0.303
  31. Stream size                              : 9.48 GiB (76%)
  32. Title                                    : HEVC, [email protected]@High, 24 fps @ 11391 kbps
  33. Writing library                          : x265 3.4+14-gd419c7152:[Windows][GCC 10.2.0][64 bit] 10bit
  34. Encoding settings                        : cpuid=538751111039 / frame-threads=4 / numa-pools=16 / wpp / pmode / pme / no-psnr / no-ssim / log-level=2 / input-csp=1 / input-res=1920x816 / interlace=0 / total-frames=171654 / level-idc=51 / high-tier=1 / uhd-bd=0 / ref=5 / no-allow-non-conformance / no-repeat-headers / annexb / no-aud / no-hrd / info / hash=0 / no-temporal-layers / open-gop / min-keyint=24 / keyint=240 / gop-lookahead=0 / bframes=6 / b-adapt=2 / b-pyramid / bframe-bias=0 / rc-lookahead=40 / lookahead-slices=0 / NTM4NzU=uuDQuD2mJt9fsCf / scenecut=40 / hist-scenecut=0 / radl=0 / no-splice / no-intra-refresh / ctu=32 / min-cu-size=8 / no-rect / no-amp / max-tu-size=32 / tu-inter-depth=3 / tu-intra-depth=3 / limit-tu=4 / rdoq-level=2 / dynamic-rd=0.00 / no-ssim-rd / signhide / no-tskip / nr-intra=0 / nr-inter=0 / no-constrained-intra / no-strong-intra-smoothing / max-merge=4 / limit-refs=1 / limit-modes / me=3 / subme=4 / merange=25 / temporal-mvp / no-frame-dup / no-hme / weightp / weightb / no-analyze-src-pics / deblock=-3:-3 / no-sao / no-sao-non-deblock / rd=6 / selective-sao=0 / no-early-skip / rskip / no-fast-intra / no-tskip-fast / no-cu-lossless / b-intra / no-splitrd-skip / rdpenalty=0 / psy-rd=2.00 / psy-rdoq=1.00 / no-rd-refine / no-lossless / cbqpoffs=0 / crqpoffs=0 / rc=crf / crf=19.5 / qcomp=0.65 / qpstep=4 / stats-write=0 / stats-read=0 / vbv-maxrate=80000 / vbv-bufsize=80000 / vbv-init=0.9 / crf-max=0.0 / crf-min=0.0 / ipratio=1.40 / pbratio=1.30 / aq-mode=2 / aq-strength=0.85 / cutree / zone-count=0 / no-strict-cbr / qg-size=32 / no-rc-grain / qpmax=69 / qpmin=0 / no-const-vbv / sar=1 / overscan=0 / videoformat=5 / range=0 / colorprim=1 / transfer=1 / colormatrix=1 / chromaloc=0 / display-window=0 / cll=0,0 / min-luma=0 / max-luma=1023 / log2-max-poc-lsb=8 / vui-timing-info / vui-hrd-info / slices=1 / no-opt-qp-pps / no-opt-ref-list-length-pps / no-multi-pass-opt-rps / scenecut-bias=0.05 / hist-threshold=0.03 / no-opt-cu-delta-qp / no-aq-motion / no-hdr10 / no-hdr10-opt / no-dhdr10-opt / no-idr-recovery-sei / analysis-reuse-level=0 / analysis-save-reuse-level=0 / analysis-load-reuse-level=0 / scale-factor=0 / refine-intra=0 / refine-inter=0 / refine-mv=1 / refine-ctu-distortion=0 / no-limit-sao / ctu-info=0 / no-lowpass-dct / refine-analysis-type=0 / copy-pic=1 / max-ausize-factor=1.0 / no-dynamic-refine / no-single-sei / no-hevc-aq / no-svt / no-field / qp-adaptation-range=1.00 / no-scenecut-aware-qpconformance-window-offsets / right=0 / bottom=0 / NTM4NzU= / decoder-max-rate=0
  35. Language                                 : English
  36. Default                                  : Yes
  37. Forced                                   : No
  38. Color range                              : Limited
  39. Color primaries                          : BT.709
  40. Transfer characteristics                 : BT.709
  41. Matrix coefficients                      : BT.709
  42. Audio #1
  43. ID                                       : 2
  44. Format                                   : MLP FBA
  45. Format/Info                              : Meridian Lossless Packing FBA
  46. Commercial name                          : Dolby TrueHD
  47. Codec ID                                 : A_TRUEHD
  48. Duration                                 : 1 h 59 min
  49. Bit rate mode                            : Variable
  50. Bit rate                                 : 2 817 kb/s
  51. Maximum bit rate                         : 4 422 kb/s
  52. Channel(s)                               : 6 channels
  53. Channel layout                           : L R C LFE Ls Rs
  54. Sampling rate                            : 96.0 kHz
  55. Frame rate                               : 1 200.000 FPS (80 SPF)
  56. Compression mode                         : Lossless
  57. Stream size                              : 2.35 GiB (19%)
  58. Title                                    : Cantonese Dolby TrueHD Audio 5.1 @ 3457 kbps
  59. Language                                 : Chinese
  60. Default                                  : Yes
  61. Forced                                   : No
  62. Audio #2
  63. ID                                       : 3
  64. Format                                   : AC-3
  65. Format/Info                              : Audio Coding 3
  66. Commercial name                          : Dolby Digital
  67. Codec ID                                 : A_AC3
  68. Duration                                 : 1 h 59 min
  69. Bit rate mode                            : Constant
  70. Bit rate                                 : 640 kb/s
  71. Channel(s)                               : 6 channels
  72. Channel layout                           : L R C LFE Ls Rs
  73. Sampling rate                            : 48.0 kHz
  74. Frame rate                               : 31.250 FPS (1536 SPF)
  75. Compression mode                         : Lossy
  76. Stream size                              : 546 MiB (4%)
  77. Title                                    : Cantonese AC3 5.1-EX @ 640 kbps
  78. Language                                 : Chinese
  79. Service kind                             : Complete Main
  80. Default                                  : No
  81. Forced                                   : No
  82. Text #1
  83. ID                                       : 4
  84. Format                                   : PGS
  85. Codec ID                                 : S_HDMV/PGS
  86. Codec ID/Info                            : Picture based subtitle format used on BDs/HD-DVDs
  87. Duration                                 : 1 h 54 min
  88. Bit rate                                 : 31.6 kb/s
  89. Count of elements                        : 2868
  90. Stream size                              : 25.9 MiB (0%)
  91. Title                                    : Cht/SUP  原盘繁体
  92. Language                                 : Chinese
  93. Default                                  : No
  94. Forced                                   : No
  95. Text #2
  96. ID                                       : 5
  97. Format                                   : PGS
  98. Codec ID                                 : S_HDMV/PGS
  99. Codec ID/Info                            : Picture based subtitle format used on BDs/HD-DVDs
  100. Duration                                 : 1 h 54 min
  101. Bit rate                                 : 30.9 kb/s
  102. Count of elements                        : 2868
  103. Stream size                              : 25.3 MiB (0%)
  104. Title                                    : Chs/SUP  原盘简体
  105. Language                                 : Chinese
  106. Default                                  : Yes
  107. Forced                                   : No
  108. Text #3
  109. ID                                       : 6
  110. Format                                   : PGS
  111. Codec ID                                 : S_HDMV/PGS
  112. Codec ID/Info                            : Picture based subtitle format used on BDs/HD-DVDs
  113. Duration                                 : 1 h 54 min
  114. Bit rate                                 : 36.8 kb/s
  115. Count of elements                        : 2868
  116. Stream size                              : 30.1 MiB (0%)
  117. Title                                    : Eng/SUP
  118. Language                                 : English
  119. Default                                  : No
  120. Forced                                   : No
  121. Menu
  122. 00:00:00.000                             : en:第 01 章
  123. 00:10:44.667                             : en:第 02 章
  124. 00:20:52.000                             : en:第 03 章
  125. 00:30:45.750                             : en:第 04 章
  126. 00:39:10.292                             : en:第 05 章
  127. 00:48:19.875                             : en:第 06 章
  128. 01:00:31.083                             : en:第 07 章
  129. 01:10:28.042                             : en:第 08 章
  130. 01:20:59.500                             : en:第 09 章
  131. 01:30:27.750                             : en:第 10 章
  132. 01:37:48.417                             : en:第 11 章
  133. 01:50:22.083                             : en:第 12 章
复制代码

















保举请利用qBittorrent,utorrent,transmission等标准BT软件下载!以获得最快速度。奉求保种!





回复

使用道具 举报

懒得打字嘛,点击右侧快捷回复 【右侧内容,后台自定义】
您需要登录后才可以回帖 登录 | 立即加入

本版积分规则

Archiver|小黑屋| 蓝光电影网 |网站地图

Copyright © 2021 Comsenz Inc. Powered by 蓝光电影网

蓝光电影网

本站内容由用户自主分享和转载自互联网,转载目的在于传递更多信息,并不代表本网赞同其观点和对其真实性负责。

如有侵权、违反国家法律政策行为,请联系我们,我们会第一时间及时清除和处理!

举报反馈邮箱:[email protected]

快速回复 返回顶部 返回列表