找回密码

蓝光电影网

查看: 139|回复: 0

[剧情] 螳螂[国语音轨/简繁英字幕].Shaolin.Mantis.1978.BluRay.1080p.DTS-HD.MA.2.0.x265.10bit-ALT 7.28GB

[复制链接]
蓝光币
8
发表于 2022-7-29 18:50:07 | 显示全部楼层 |阅读模式


◎标  题 螳螂
◎译  名 Shaolin Mantis / Deadly Mantis
◎年  代 1978
◎产  地 中国香港
◎类  别 剧情 / 行动
◎语  言 汉语普通话
◎上映日期 1978-06-28(中国香港)
◎IMDb评分 6.8/10 (648人评价)
◎IMDb链接 https://www.imdb.com/title/tt0078360/
◎豆瓣评分 6.4/10 (782人评价)
◎豆瓣链接 https://movie.douban.com/subject/1785255/
◎片  长 96分钟
◎导  演 刘家良 Kar-Leung Lau
◎编  剧 司徒安 On Szeto
◎演  员 姜大卫 David Chiang
       黄杏秀 Cecilia Wong
       刘家辉 Chia Hui Liu
       李丽珍 Loletta Lee
       徐少强 Norman Chu
       唐伟成 Wilson Tong
       王清河 Ching-Ho Wang
       西瓜刨 Gwa-pau Sai
       刘准 Cheun Lau
       谈瑛 Ying Tan
       张午郎 John Cheung
       夏萍 Ping Ha
       井淼 Miao Ching
       韦弘 Hung Wei
       李海生 Hoi Sang Lee
       刘家荣 Chia Yung Liu
       李丽丽 Lily Li
       方逸华 Mona Fong
       黄岳泰 Arthur Wong
       姜兴盛 Hsing-lung Chiang
       曹庄生 Johnson Tsao
       吴绪清 Hsu-Ching Wu
       刘家良 Kar-Leung Lau
       彭雁联 Yen-Lien Peng
       王永华 Yung-Hua Wang
◎简  介
  由一代武打大师刘家良徒弟执导又一功夫之作《螳螂》,昔时有刘家辉、黄杏秀、李丽丽及姜大卫坐阵表演,为观众活现「螳螂拳法」!                                    
                                故事布景于清代,清官之子韦风(姜大卫饰)为了到田家找出哗变之实据,遇上了田家孙女芝芝(黄杏秀饰),芝芝最後为保护韦风,惨死于田老拳下;韦风死里逃 生,为报仇创出螳螂拳法……
  1. ##### MediaInfo ######
  2. General
  3. Unique ID                                : 61041424885881501830926583699640559445 (0x2DEC269B1035168EFF3E6965AE162755)
  4. Complete name                            : Shaolin.Mantis.1978.BluRay.1080p.DTS-HD.MA.2.0.x265.10bit-ALT.mkv
  5. Format                                   : Matroska
  6. Format version                           : Version 4
  7. File size                                : 7.28 GiB
  8. Duration                                 : 1 h 40 min
  9. Overall bit rate mode                    : Variable
  10. Overall bit rate                         : 10.4 Mb/s
  11. Encoded date                             : UTC 2022-05-02 10:08:50
  12. Writing application                      : mkvmerge v49.0.0 ('Sick Of Losing Soulmates') 64-bit
  13. Writing library                          : libebml v1.4.0 + libmatroska v1.6.1
  14. Video
  15. ID                                       : 1
  16. Format                                   : HEVC
  17. Format/Info                              : High Efficiency Video Coding
  18. Format profile                           : Main [email protected]@High
  19. Codec ID                                 : V_MPEGH/ISO/HEVC
  20. Duration                                 : 1 h 40 min
  21. Bit rate                                 : 8 966 kb/s
  22. Width                                    : 1 920 pixels
  23. Height                                   : 812 pixels
  24. Display aspect ratio                     : 2.35:1
  25. Frame rate mode                          : Constant
  26. Frame rate                               : 23.976 (24000/1001/53875) FPS
  27. Color space                              : YUV
  28. Chroma subsampling                       : 4:2:0
  29. Bit depth                                : 10 bits
  30. Bits/(Pixel*Frame)                       : 0.240
  31. Stream size                              : 6.29 GiB (86%)
  32. Title                                    : HEVC, [email protected]@High, 24/1.001 fps @ 8966 kbps
  33. Writing library                          : x265 3.5+36-1f2c8da77:[Windows][GCC 11.2.0][64 bit] 10bit
  34. Encoding settings                        : cpuid=538751111039 / frame-threads=4 / numa-pools=16 / wpp / no-pmode / no-pme / no-psnr / no-ssim / log-level=2 / input-csp=1 / input-res=1920x812 / interlace=0 / total-frames=144395 / level-idc=51 / high-tier=1 / uhd-bd=0 / ref=5 / no-allow-non-conformance / no-repeat-headers / annexb / no-aud / no-eob / no-eos / no-hrd / info / hash=0 / no-temporal-layers / open-gop / min-keyint=24 / keyint=240 / gop-lookahead=0 / bframes=6 / b-adapt=2 / b-pyramid / bframe-bias=0 / rc-lookahead=40 / lookahead-slices=0 / NTM4NzU=uuDQuD2mJt9fsCf / scenecut=40 / no-hist-scenecut / radl=0 / no-splice / no-intra-refresh / ctu=32 / min-cu-size=8 / no-rect / no-amp / max-tu-size=32 / tu-inter-depth=3 / tu-intra-depth=3 / limit-tu=4 / rdoq-level=2 / dynamic-rd=0.00 / no-ssim-rd / signhide / no-tskip / nr-intra=0 / nr-inter=0 / no-constrained-intra / no-strong-intra-smoothing / max-merge=4 / limit-refs=1 / limit-modes / me=3 / subme=4 / merange=25 / temporal-mvp / no-frame-dup / no-hme / weightp / weightb / no-analyze-src-pics / deblock=-3:-3 / no-sao / no-sao-non-deblock / rd=6 / selective-sao=0 / no-early-skip / rskip / no-fast-intra / no-tskip-fast / no-cu-lossless / b-intra / no-splitrd-skip / rdpenalty=0 / psy-rd=2.00 / psy-rdoq=1.00 / no-rd-refine / no-lossless / cbqpoffs=-2 / crqpoffs=-2 / rc=crf / crf=17.0 / qcomp=0.65 / qpstep=4 / stats-write=0 / stats-read=0 / vbv-maxrate=80000 / vbv-bufsize=80000 / vbv-init=0.9 / min-vbv-fullness=50.0 / max-vbv-fullness=80.0 / crf-max=0.0 / crf-min=0.0 / ipratio=1.40 / pbratio=1.30 / aq-mode=2 / aq-strength=0.85 / cutree / zone-count=0 / no-strict-cbr / qg-size=32 / no-rc-grain / qpmax=69 / qpmin=0 / no-const-vbv / sar=1 / overscan=0 / videoformat=5 / range=0 / colorprim=1 / transfer=1 / colormatrix=1 / chromaloc=0 / display-window=0 / cll=0,0 / min-luma=0 / max-luma=1023 / log2-max-poc-lsb=8 / vui-timing-info / vui-hrd-info / slices=1 / no-opt-qp-pps / no-opt-ref-list-length-pps / no-multi-pass-opt-rps / scenecut-bias=0.05 / hist-threshold=0.03 / no-opt-cu-delta-qp / no-aq-motion / no-hdr10 / no-hdr10-opt / no-dhdr10-opt / no-idr-recovery-sei / analysis-reuse-level=0 / analysis-save-reuse-level=0 / analysis-load-reuse-level=0 / scale-factor=0 / refine-intra=0 / refine-inter=0 / refine-mv=1 / refine-ctu-distortion=0 / no-limit-sao / ctu-info=0 / no-lowpass-dct / refine-analysis-type=0 / copy-pic=1 / max-ausize-factor=1.0 / no-dynamic-refine / no-single-sei / no-hevc-aq / no-svt / no-field / qp-adaptation-range=1.00 / scenecut-aware-qp=0conformance-window-offsets / right=0 / bottom=0 / NTM4NzU= / decoder-max-rate=0 / no-vbv-live-multi-pass
  35. Language                                 : English
  36. Default                                  : Yes
  37. Forced                                   : No
  38. Color range                              : Limited
  39. Color primaries                          : BT.709
  40. Transfer characteristics                 : BT.709
  41. Matrix coefficients                      : BT.709
  42. Audio
  43. ID                                       : 2
  44. Format                                   : DTS XLL
  45. Format/Info                              : Digital Theater Systems
  46. Commercial name                          : DTS-HD Master Audio
  47. Codec ID                                 : A_DTS
  48. Duration                                 : 1 h 40 min
  49. Bit rate mode                            : Variable
  50. Bit rate                                 : 1 363 kb/s
  51. Channel(s)                               : 2 channels
  52. Channel layout                           : L R
  53. Sampling rate                            : 48.0 kHz
  54. Frame rate                               : 93.750 FPS (512 SPF)
  55. Bit depth                                : 24 bits
  56. Compression mode                         : Lossless
  57. Stream size                              : 978 MiB (13%)
  58. Title                                    : Mandarin DTS-HD Master Audio 2.0 @ 1364 kbps
  59. Language                                 : Chinese
  60. Default                                  : Yes
  61. Forced                                   : No
  62. Text #1
  63. ID                                       : 3
  64. Format                                   : PGS
  65. Codec ID                                 : S_HDMV/PGS
  66. Codec ID/Info                            : Picture based subtitle format used on BDs/HD-DVDs
  67. Duration                                 : 1 h 39 min
  68. Bit rate                                 : 19.5 kb/s
  69. Count of elements                        : 1514
  70. Stream size                              : 13.8 MiB (0%)
  71. Title                                    : Eng/SUP
  72. Language                                 : English
  73. Default                                  : No
  74. Forced                                   : No
  75. Text #2
  76. ID                                       : 4
  77. Format                                   : PGS
  78. Codec ID                                 : S_HDMV/PGS
  79. Codec ID/Info                            : Picture based subtitle format used on BDs/HD-DVDs
  80. Duration                                 : 1 h 36 min
  81. Bit rate                                 : 14.5 kb/s
  82. Count of elements                        : 1608
  83. Stream size                              : 10.0 MiB (0%)
  84. Title                                    : Chs/SUP  简体
  85. Language                                 : Chinese
  86. Default                                  : Yes
  87. Forced                                   : No
  88. Text #3
  89. ID                                       : 5
  90. Format                                   : PGS
  91. Codec ID                                 : S_HDMV/PGS
  92. Codec ID/Info                            : Picture based subtitle format used on BDs/HD-DVDs
  93. Duration                                 : 1 h 36 min
  94. Bit rate                                 : 15.7 kb/s
  95. Count of elements                        : 1608
  96. Stream size                              : 10.8 MiB (0%)
  97. Title                                    : Cht/SUP  繁体
  98. Language                                 : Chinese
  99. Default                                  : No
  100. Forced                                   : No
  101. Menu
  102. 00:00:00.000                             : en:Chapter 01
  103. 00:09:48.921                             : en:Chapter 02
  104. 00:19:50.731                             : en:Chapter 03
  105. 00:31:30.388                             : en:Chapter 04
  106. 00:39:46.050                             : en:Chapter 05
  107. 00:50:41.788                             : en:Chapter 06
  108. 00:59:06.626                             : en:Chapter 07
  109. 01:11:22.987                             : en:Chapter 08
  110. 01:20:57.686                             : en:Chapter 09
  111. 01:30:39.350                             : en:Chapter 10
复制代码

















保举请利用qBittorrent,utorrent,transmission等标准BT软件下载!以获得最快速度。奉求保种!





回复

使用道具 举报

懒得打字嘛,点击右侧快捷回复 【右侧内容,后台自定义】
您需要登录后才可以回帖 登录 | 立即加入

本版积分规则

Archiver|小黑屋| 蓝光电影网 |网站地图

Copyright © 2021 Comsenz Inc. Powered by 蓝光电影网

蓝光电影网

本站内容由用户自主分享和转载自互联网,转载目的在于传递更多信息,并不代表本网赞同其观点和对其真实性负责。

如有侵权、违反国家法律政策行为,请联系我们,我们会第一时间及时清除和处理!

举报反馈邮箱:[email protected]

快速回复 返回顶部 返回列表