找回密码

蓝光电影网

查看: 57|回复: 1

[剧情] 三国之见龙卸甲[国语音轨/简繁英字幕].Three.Kingdoms.Resurrection.of.the.Dragon.2008.Bluray.1080p.x264.DTS.5.1-MOMOHD 8.28GB

[复制链接]
蓝光币
7
发表于 2022-7-29 18:50:50 | 显示全部楼层 |阅读模式


◎标  题 三国之见龙卸甲
◎译  名 见龙卸甲 / Three Kingdoms: Resurrection of the Dragon
◎年  代 2008
◎产  地 中国大陆 / 韩国 / 中国香港
◎类  别 剧情 / 行动 / 历史 / 战争
◎语  言 汉语普通话
◎上映日期 2008-04-03(中国大陆)
◎IMDb评分 6.2/10 (6335人评价)
◎IMDb链接 https://www.imdb.com/title/tt0882978/
◎豆瓣评分 5.5/10 (69084人评价)
◎豆瓣链接 https://movie.douban.com/subject/1947091/
◎片  长 102 分钟
◎导  演 李仁港 Daniel Lee
◎编  剧 李仁港 Daniel Lee
       刘浩良 Ho Leung Lau
       冯志强 Chi Keung Fung
       罗贯中 Guanzhong Luo
◎演  员 刘德华 Andy Lau
       洪金宝 Sammo Hung Kam-Bo
       李美琪 Maggie Q
       吴建豪 Vanness Wu
       濮存昕 Cunxin Pu
       安志杰 Andy On
       于荣光 Ringo Yu
       岳华 Hua Yueh
       狄龙 Lung Ti
       刘松仁 Damian Lau
       丁海峰 Haifeng Ding
       姜宏波 Hongbo Jiang
       巩承琪 Chengqi Gong
       赵尔康 Erkang Zhao
       洪天明 Timmy Hung Tin-Ming
       王洪涛 Hongtao Wang
       张永达 Yongda Zhang
       梁玉瑾 Yujin Liang
       王燕君 Yanjun Wang
       计春华 Chunhua Ji
       戴夫·麦罗 Dave Mallow
       陈之辉 Zhihui Chen
       白静 Jing Bai
       邓为 Wei Deng
       黎允文 Henry Lai
       张东亮 Tony Cheung
       邓文滔 Man To Tang
       张嘉辉 Ka-fai Cheung
       马名誉 Horace Ma
       李仁港 Daniel Lee
       庄志良 Thomas Chong
       马克.加巴里诺 Mark Garbarino
       洪金宝 Sammo Hung Kam-Bo
       元德 Tak Yuen
       林克明 Ke Ming Lin
◎标  签 刘德华 / 行动 / 香港 / 香港电影 / 三国之见龙卸甲 / 历史 / 三国 / 2008
◎简  介
  三国浊世,烽火纷争。面临魏军强势压境,初任工兵的赵云(刘德华 饰)自动请缨,借助智囊诸葛亮(濮存昕 饰)以攻为守的战略,立下劫寨扰敌的大功。随后的长坂坡一战,赵云单枪匹马杀入曹救援回幼主,从而一战成名。随后并被委以重任与黄忠宿将军一路出征定军山,收取汉中,奠基蜀国基业。不外此役,由于黄忠心急想争头功提早出兵,却中了曹操的奸计伤亡惨重。危机之时,赵云实时赶到救出了黄忠和罗平安(洪金宝 饰),并在诸葛亮奇策的帮助下,烧掉曹军粮草改变战局立下大功。赵云也是以荣升五虎上将,而身为同乡兄长的罗平安心中却是各式滋味。时候就在战争中飞逝而过,蜀国的五虎上将也前后谢世。在诸葛亮的再一次灭魏大计前,赵云对峙做先锋上将,却在凤鸣山前遇上曹操10万雄师,面临人生的终极之战,赵云该若何应对?
  1. ##### MediaInfo ######
  2. General
  3. Unique ID                                : 225048158961923914317926414030532082482 (0xA94EB2E65A375E442C5CE87C05E17B32)
  4. Complete name                            : Three.Kingdoms.Resurrection.of.the.Dragon.2008.Bluray.1080p.x264.DTS.5.1-MOMOHD.mkv
  5. Format                                   : Matroska
  6. Format version                           : Version 4
  7. File size                                : 8.28 GiB
  8. Duration                                 : 1 h 41 min
  9. Overall bit rate                         : 11.6 Mb/s
  10. Encoded date                             : UTC 2019-10-11 08:41:29
  11. Writing application                      : mkvmerge v38.0.0 ('The Silent Type') 64-bit
  12. Writing library                          : libebml v1.3.9 + libmatroska v1.5.2
  13. Video
  14. ID                                       : 1
  15. Format                                   : AVC
  16. Format/Info                              : Advanced Video Codec
  17. Format profile                           : [email protected]
  18. Format settings                          : CABAC / 5 Ref Frames
  19. Format settings, CABAC                   : Yes
  20. Format settings, Reference frames        : 5 frames
  21. Codec ID                                 : V_MPEG4/ISO/AVC
  22. Duration                                 : 1 h 41 min
  23. Bit rate                                 : 10.1 Mb/s
  24. Width                                    : 1 920 pixels
  25. Height                                   : 818 pixels
  26. Display aspect ratio                     : 2.35:1
  27. Frame rate mode                          : Constant
  28. Frame rate                               : 23.976 (24000/1001/53875) FPS
  29. Color space                              : YUV
  30. Chroma subsampling                       : 4:2:0
  31. Bit depth                                : 8 bits
  32. Scan type                                : Progressive
  33. Bits/(Pixel*Frame)                       : 0.269
  34. Stream size                              : 7.19 GiB (87%)
  35. Title                                    : [email protected]
  36. Writing library                          : x264 core 148 r2692+46 0f71ed5 7mod [[email protected] X86_64]
  37. Encoding settings                        : cabac=1 / ref=5 / deblock=1:-3:-3 / analyse=0x3:0x113 / me=umh / subme=11 / psy=1 / fade_compensate=0.00 / psy_rd=1.00:0.00 / mixed_ref=1 / me_range=48 / chroma_me=1 / trellis=2 / 8x8dct=1 / cqm=0 / deadzone=11,6 / fast_pskip=0 / chroma_qp_offset=-2 / threads=24 / lookahead_threads=4 / sliced_threads=0 / nr=0 / decimate=0 / interlaced=0 / NTM4NzU= / bluray_compat=0 / constrained_intra=0 / fgo=0 / bframes=8 / b_pyramid=2 / b_adapt=2 / b_bias=0 / direct=3 / weightb=1 / open_gop=0 / weightp=2 / keyint=250 / keyint_min=23 / NTM4NzU=uuDQuD2mJt9fsCf / scenecut=40 / intra_refresh=0 / rc_lookahead=60 / rc=crf / mbtree=0 / crf=18.5000 / qcomp=0.60 / qpmin=0:0:0 / qpmax=32:32:32 / qpstep=4 / vbv_maxrate=40000 / vbv_bufsize=30000 / crf_max=0.0 / nal_hrd=none / filler=0 / NTM4NzU=LmsMAP37EqsCpk / ip_ratio=1.30 / pb_ratio=1.20 / aq=4:0.80 / aq-sensitivity=10.00 / aq-factor=1.00:1.00:1.00 / aq2=0 / aq3=0
  38. Language                                 : Chinese
  39. Default                                  : Yes
  40. Forced                                   : No
  41. Color range                              : Limited
  42. Color primaries                          : BT.709
  43. Transfer characteristics                 : BT.709
  44. Matrix coefficients                      : BT.709
  45. Audio
  46. ID                                       : 2
  47. Format                                   : DTS
  48. Format/Info                              : Digital Theater Systems
  49. Codec ID                                 : A_DTS
  50. Duration                                 : 1 h 41 min
  51. Bit rate mode                            : Constant
  52. Bit rate                                 : 1 509 kb/s
  53. Channel(s)                               : 6 channels
  54. Channel layout                           : C L R Ls Rs LFE
  55. Sampling rate                            : 48.0 kHz
  56. Frame rate                               : 93.750 FPS (512 SPF)
  57. Bit depth                                : 24 bits
  58. Compression mode                         : Lossy
  59. Stream size                              : 1.07 GiB (13%)
  60. Language                                 : Chinese
  61. Default                                  : Yes
  62. Forced                                   : No
  63. Text #1
  64. ID                                       : 3
  65. Format                                   : PGS
  66. Muxing mode                              : zlib
  67. Codec ID                                 : S_HDMV/PGS
  68. Codec ID/Info                            : Picture based subtitle format used on BDs/HD-DVDs
  69. Duration                                 : 1 h 34 min
  70. Bit rate                                 : 17.4 kb/s
  71. Count of elements                        : 1211
  72. Stream size                              : 11.8 MiB (0%)
  73. Title                                    : 简中
  74. Language                                 : Chinese
  75. Default                                  : Yes
  76. Forced                                   : No
  77. Text #2
  78. ID                                       : 4
  79. Format                                   : PGS
  80. Muxing mode                              : zlib
  81. Codec ID                                 : S_HDMV/PGS
  82. Codec ID/Info                            : Picture based subtitle format used on BDs/HD-DVDs
  83. Duration                                 : 1 h 34 min
  84. Bit rate                                 : 19.6 kb/s
  85. Count of elements                        : 1211
  86. Stream size                              : 13.3 MiB (0%)
  87. Title                                    : 繁中
  88. Language                                 : Chinese
  89. Default                                  : No
  90. Forced                                   : No
  91. Text #3
  92. ID                                       : 5
  93. Format                                   : PGS
  94. Muxing mode                              : zlib
  95. Codec ID                                 : S_HDMV/PGS
  96. Codec ID/Info                            : Picture based subtitle format used on BDs/HD-DVDs
  97. Duration                                 : 1 h 35 min
  98. Bit rate                                 : 23.8 kb/s
  99. Count of elements                        : 1235
  100. Stream size                              : 16.3 MiB (0%)
  101. Title                                    : 英文
  102. Language                                 : English
  103. Default                                  : No
  104. Forced                                   : No
  105. Menu
  106. 00:00:00.000                             : :绗?01 绔?
  107. 00:03:40.429                             : :绗?02 绔?
  108. 00:09:11.092                             : :绗?03 绔?
  109. 00:12:50.395                             : :绗?04 绔?
  110. 00:17:37.974                             : :绗?05 绔?
  111. 00:20:22.763                             : :绗?06 绔?
  112. 00:25:08.424                             : :绗?07 绔?
  113. 00:33:35.472                             : :绗?08 绔?
  114. 00:39:15.728                             : :绗?09 绔?
  115. 00:42:13.740                             : :绗?10 绔?
  116. 00:47:20.254                             : :绗?11 绔?
  117. 00:51:16.407                             : :绗?12 绔?
  118. 00:54:27.222                             : :绗?13 绔?
  119. 00:58:42.310                             : :绗?14 绔?
  120. 01:05:36.224                             : :绗?15 绔?
  121. 01:10:30.893                             : :绗?16 绔?
  122. 01:14:44.146                             : :绗?17 绔?
  123. 01:19:22.341                             : :绗?18 绔?
  124. 01:25:27.706                             : :绗?19 绔?
  125. 01:30:54.741                             : :绗?20 绔?
  126. 01:37:57.121                             : :绗?21 绔?
复制代码

















保举请利用qBittorrent,utorrent,transmission等标准BT软件下载!以获得最快速度。奉求保种!





回复

使用道具 举报

蓝光币
411
发表于 2022-7-29 21:50:50 | 显示全部楼层

既然你诚信诚意的推荐了,那我就勉为其难的看看吧!蓝光电影网不走平凡路。
回复 支持 反对

使用道具 举报

懒得打字嘛,点击右侧快捷回复 【右侧内容,后台自定义】
您需要登录后才可以回帖 登录 | 立即加入

本版积分规则

Archiver|小黑屋| 蓝光电影网 |网站地图

Copyright © 2021 Comsenz Inc. Powered by 蓝光电影网

蓝光电影网

本站内容由用户自主分享和转载自互联网,转载目的在于传递更多信息,并不代表本网赞同其观点和对其真实性负责。

如有侵权、违反国家法律政策行为,请联系我们,我们会第一时间及时清除和处理!

举报反馈邮箱:[email protected]

快速回复 返回顶部 返回列表