找回密码

蓝光电影网

查看: 71|回复: 2

[剧情] 钛[简繁英字幕].Titane.2021.1080p.BluRay.DTS.x264-TAGHD 11.67GB

[复制链接]
蓝光币
7
发表于 2022-7-29 18:50:51 | 显示全部楼层 |阅读模式


◎标  题 钛
◎片  名 Titane
◎年  代 2021
◎产  地 法国 / 比利时
◎类  别 剧情 / 惊悚
◎语  言 法语
◎上映日期 2021-07-13(戛纳电影节) / 2021-07-14(法国) / 2021-10-19(美国收集)
◎IMDb评分 6.7/10 (19691人评价)
◎IMDb链接 https://www.imdb.com/title/tt10944760/
◎豆瓣评分 6.4/10 (34763人评价)
◎豆瓣链接 https://movie.douban.com/subject/34820925/
◎片  长 108分钟
◎导  演 朱利亚·迪库诺 Julia Ducournau
◎编  剧 朱利亚·迪库诺 Julia Ducournau
◎演  员 阿加莎·罗塞勒 Agathe Rousselle
       文森特·林顿 Vincent Lindon
       加朗斯·马里利埃 Garance Marillier
       贝特朗·波尼洛 Bertrand Bonello
       拉明·西索科 Lamine Cissokho
       弗雷德里克·雅尔丹 Frédéric Jardin
       弗洛伦斯·詹纳斯 Florence Janas
       Diong-Kéba Tacu Diong-Kéba Tacu
        Laïs Salameh
◎标  签 法国 / 惊悚 / 2021 / 戛纳 / 女性 / 剧情 / 可骇 / 金棕榈
◎简  介
  艾莉克西亚(阿加莎·罗塞勒 Agathe Rousselle 饰)是一位汽车模特,具有曼妙身段的他靠着跳艳舞保持生存。艾莉克西亚有一个奥秘,那就是他可以和汽车发素性关系,这类扭曲的性嗜好深深的影响了他的性情,让他变得暴戾而又刻毒。                                    
                                艾莉克西亚的父亲文森特(文森特·林顿 Vincent Lindon 饰)是消防队的队长,早些年间,艾莉克西亚由于受不了父亲独断跋扈的教育方式而离家出走,可是经过某一个契机,在多年以后,艾莉克西亚和父亲团圆了,回到了已经生活过的家中。文森特没法接管自己的而又现在酿成了人妖,想尽了各类方式要改正他的性别,与此同时,艾莉克西亚震动的发现自己怀孕了。
  1. ##### MediaInfo ######
  2. General
  3. Unique ID                                : 53998669346460332827174731865746212423 (0x289FC3F2E6ED74EA10507A73584A8647)
  4. Complete name                            : Titane.2021.1080p.BluRay.DTS.x264-TAGHD.mkv
  5. Format                                   : Matroska
  6. Format version                           : Version 4
  7. File size                                : 11.7 GiB
  8. Duration                                 : 1 h 47 min
  9. Overall bit rate                         : 15.5 Mb/s
  10. Encoded date                             : UTC 2022-07-25 00:36:40
  11. Writing application                      : mkvmerge v42.0.0 ('Overtime') 64-bit
  12. Writing library                          : libebml v1.3.10 + libmatroska v1.5.2
  13. Video
  14. ID                                       : 1
  15. Format                                   : AVC
  16. Format/Info                              : Advanced Video Codec
  17. Format profile                           : [email protected]
  18. Format settings                          : CABAC / 5 Ref Frames
  19. Format settings, CABAC                   : Yes
  20. Format settings, Reference frames        : 5 frames
  21. Codec ID                                 : V_MPEG4/ISO/AVC
  22. Duration                                 : 1 h 47 min
  23. Bit rate                                 : 13.9 Mb/s
  24. Width                                    : 1 920 pixels
  25. Height                                   : 804 pixels
  26. Display aspect ratio                     : 2.40:1
  27. Frame rate mode                          : Constant
  28. Frame rate                               : 24.000 FPS
  29. Color space                              : YUV
  30. Chroma subsampling                       : 4:2:0
  31. Bit depth                                : 8 bits
  32. Scan type                                : Progressive
  33. Bits/(Pixel*Frame)                       : 0.376
  34. Stream size                              : 10.5 GiB (90%)
  35. Writing library                          : x264 core 142 r2431+42 c69a006 tMod [[email protected]:2:0 X86_64]
  36. Encoding settings                        : cabac=1 / ref=5 / deblock=1:-3:-3 / analyse=0x3:0x113 / me=umh / subme=11 / psy=1 / fade_compensate=0.00 / psy_rd=1.05:0.00 / mixed_ref=1 / me_range=32 / chroma_me=1 / trellis=2 / 8x8dct=1 / cqm=0 / deadzone=21,11 / fast_pskip=0 / chroma_qp_offset=-2 / threads=24 / lookahead_threads=4 / sliced_threads=0 / nr=0 / decimate=0 / interlaced=0 / NTM4NzU= / bluray_compat=0 / constrained_intra=0 / fgo=0 / bframes=8 / b_pyramid=2 / b_adapt=2 / b_bias=0 / direct=3 / weightb=1 / open_gop=0 / weightp=2 / keyint=250 / keyint_min=24 / NTM4NzU=uuDQuD2mJt9fsCf / scenecut=40 / intra_refresh=0 / rc_lookahead=60 / rc=crf / mbtree=0 / crf=14.7000 / qcomp=0.60 / qpmin=0:0:0 / qpmax=69:69:69 / qpstep=4 / vbv_maxrate=62500 / vbv_bufsize=78125 / crf_max=0.0 / nal_hrd=none / filler=0 / NTM4NzU=LmsMAP37EqsCpk / ip_ratio=1.30 / pb_ratio=1.20 / aq=3:0.80 / aq-sensitivity=10.00 / aq-factor=1.00:1.00:1.00 / aq2=0 / aq3=0
  37. Default                                  : Yes
  38. Forced                                   : No
  39. Color range                              : Limited
  40. Color primaries                          : BT.709
  41. Transfer characteristics                 : BT.709
  42. Matrix coefficients                      : BT.709
  43. Audio
  44. ID                                       : 2
  45. Format                                   : DTS
  46. Format/Info                              : Digital Theater Systems
  47. Codec ID                                 : A_DTS
  48. Duration                                 : 1 h 47 min
  49. Bit rate mode                            : Constant
  50. Bit rate                                 : 1 509 kb/s
  51. Channel(s)                               : 6 channels
  52. Channel layout                           : C L R Ls Rs LFE
  53. Sampling rate                            : 48.0 kHz
  54. Frame rate                               : 93.750 FPS (512 SPF)
  55. Bit depth                                : 24 bits
  56. Compression mode                         : Lossy
  57. Stream size                              : 1.14 GiB (10%)
  58. Language                                 : French
  59. Default                                  : Yes
  60. Forced                                   : No
  61. Text #1
  62. ID                                       : 3
  63. Format                                   : PGS
  64. Muxing mode                              : zlib
  65. Codec ID                                 : S_HDMV/PGS
  66. Codec ID/Info                            : Picture based subtitle format used on BDs/HD-DVDs
  67. Duration                                 : 1 h 41 min
  68. Bit rate                                 : 14.6 kb/s
  69. Count of elements                        : 1278
  70. Stream size                              : 10.6 MiB (0%)
  71. Title                                    : (SDH)
  72. Language                                 : English
  73. Default                                  : No
  74. Forced                                   : No
  75. Text #2
  76. ID                                       : 4
  77. Format                                   : PGS
  78. Muxing mode                              : zlib
  79. Codec ID                                 : S_HDMV/PGS
  80. Codec ID/Info                            : Picture based subtitle format used on BDs/HD-DVDs
  81. Duration                                 : 1 h 39 min
  82. Bit rate                                 : 9 133 b/s
  83. Count of elements                        : 785
  84. Stream size                              : 6.51 MiB (0%)
  85. Title                                    : CHS
  86. Language                                 : Chinese
  87. Default                                  : Yes
  88. Forced                                   : No
  89. Text #3
  90. ID                                       : 5
  91. Format                                   : PGS
  92. Muxing mode                              : zlib
  93. Codec ID                                 : S_HDMV/PGS
  94. Codec ID/Info                            : Picture based subtitle format used on BDs/HD-DVDs
  95. Duration                                 : 1 h 39 min
  96. Bit rate                                 : 9 336 b/s
  97. Count of elements                        : 785
  98. Stream size                              : 6.66 MiB (0%)
  99. Title                                    : CHT
  100. Language                                 : Chinese
  101. Default                                  : No
  102. Forced                                   : No
  103. Menu
  104. 00:00:00.000                             : en:第 01 章
  105. 00:09:42.000                             : en:第 02 章
  106. 00:16:54.500                             : en:第 03 章
  107. 00:28:40.667                             : en:第 04 章
  108. 00:36:36.708                             : en:第 05 章
  109. 00:46:07.792                             : en:第 06 章
  110. 00:55:21.250                             : en:第 07 章
  111. 01:03:39.708                             : en:第 08 章
  112. 01:12:50.000                             : en:第 09 章
  113. 01:22:16.625                             : en:第 10 章
  114. 01:32:49.042                             : en:第 11 章
  115. 01:42:24.792                             : en:第 12 章
复制代码

















保举请利用qBittorrent,utorrent,transmission等标准BT软件下载!以获得最快速度。奉求保种!





回复

使用道具 举报

蓝光币
314
发表于 2022-7-30 11:37:05 | 显示全部楼层

~ 珍惜+支持 ~
回复

使用道具 举报

蓝光币
414
发表于 2022-7-30 18:46:10 | 显示全部楼层
谢谢分享!!!!!!
回复

使用道具 举报

懒得打字嘛,点击右侧快捷回复 【右侧内容,后台自定义】
您需要登录后才可以回帖 登录 | 立即加入

本版积分规则

Archiver|小黑屋| 蓝光电影网 |网站地图

Copyright © 2021 Comsenz Inc. Powered by 蓝光电影网

蓝光电影网

本站内容由用户自主分享和转载自互联网,转载目的在于传递更多信息,并不代表本网赞同其观点和对其真实性负责。

如有侵权、违反国家法律政策行为,请联系我们,我们会第一时间及时清除和处理!

举报反馈邮箱:[email protected]

快速回复 返回顶部 返回列表