找回密码

蓝光电影网

查看: 41|回复: 0

[剧情] 可爱的骨头[简繁英字幕].The.Lovely.Bones.2009.1080p.BluRay.DTS.x265-10bit-BATHD 9.85GB

[复制链接]
蓝光币
7
发表于 2022-7-29 18:50:55 | 显示全部楼层 |阅读模式


◎标  题 心爱的骨头
◎译  名 尸中罪(港) / 苏西的天下(台) / 死不瞑目
◎片  名 The Lovely Bones
◎年  代 2009
◎产  地 美国 / 英国 / 新西兰
◎类  别 剧情 / 惊悚 / 家庭 / 奇异
◎语  言 英语
◎上映日期 2009-12-26(新西兰)
◎IMDb评分 6.7/10 (164747人评价)
◎IMDb链接 https://www.imdb.com/title/tt0380510/
◎豆瓣评分 7.2/10 (110737人评价)
◎豆瓣链接 https://movie.douban.com/subject/1892531/
◎片  长 135分钟
◎导  演 彼得·杰克逊 Peter Jackson
◎编  剧 弗兰·威尔士 Fran Walsh
       菲利帕·鲍恩斯 Philippa Boyens
       彼得·杰克逊 Peter Jackson
       艾丽斯·西伯德 Alice Sebold
◎演  员 西尔莎·罗南 Saoirse Ronan
       马克·沃尔伯格 Mark Wahlberg
       蕾切尔·薇兹 Rachel Weisz
       苏珊·萨兰登 Susan Sarandon
       斯坦利·图齐 Stanley Tucci
       迈克尔·因佩里奥利 Michael Imperioli
       杰克·阿贝尔 Jake Abel
       瑞斯·里奇 Reece Ritchie
       李·米勒 Lee Miller
       大卫罗姆 David C. Roehm Sr.
       司徒少英 Nikki SooHoo
       查理·塞斯顿 Charlie Saxton
       安德鲁·詹姆斯·艾伦 Andrew James Allen
       阿曼达·米夏卡 AJ Michalka
       罗丝·麦克莱弗 Rose McIver
       理查德·格拉夫 Richard Graves
       斯蒂芬妮娅·欧文 Stefania Owen
       考特尼·巴克斯特 Courtney Baxter
       大卫·尼尔里姆 David Kneeream
       罗伯特·比齐克 Robert Bizik
       罗宾·马尔科姆 Robyn Malcolm
       理查德·怀特赛德 Richard Whiteside
       斯丁克·费舍尔 Stink Fisher
       格伦·德雷克 Glen Drake
       布鲁斯·菲利普斯 Bruce Phillips
       马克西米连·劳 Maximilian Law
       彼得·杰克逊 Peter Jackson
       汤姆·麦卡锡 Tom McCarthy
◎标  签 美国 / 心爱的骨头 / 亲情 / 剧情 / 美国电影 / 犯罪 / 家庭 / PeterJackson
◎简  介
    14岁的小女孩苏西(西尔莎•罗南 Saoirse Ronan 饰)素性活跃、古灵精怪,父亲(马克•沃尔伯格 Mark Wahlberg 饰)是一个模子爱好者,母亲(蕾切尔•薇姿 Rachel Weisz 饰)是循规蹈矩的传统女性,妹妹大胆,弟弟弱小。生日时,她收获了一部 相机,今后爱上了摄影,甚至在一个月间用光了24卷胶卷,令怙恃非常挠头。一次,百口在逛超市的时辰,她偷偷望着橱窗外的男孩发愣。祖母(苏珊•萨兰登 Susan Sarandon 饰)看穿了苏西的苦衷,阿谁英俊的英国学长即是她的暗恋工具。但是,还没等两小我吐露苦衷,苏西却落入了好人设下的圈套。阿谁色迷迷的邻人哈维,用蜜语甘言勾引苏西,骗她走入其事前设好的圈套……                                                                      本片按照艾丽斯•西伯德的畅销小说改编而成,以苏西的视角、倒叙的方式,报告了一个魔幻主义的犯罪故事。
  1. ##### MediaInfo ######
  2. General
  3. Unique ID                                : 126714730844081249168936709794079184515 (0x5F545E9474BB28409D6609AEF9F81683)
  4. Complete name                            : The.Lovely.Bones.2009.1080p.BluRay.DTS.x265-10bit-BATHD.mkv
  5. Format                                   : Matroska
  6. Format version                           : Version 4
  7. File size                                : 9.84 GiB
  8. Duration                                 : 2 h 15 min
  9. Overall bit rate                         : 10.4 Mb/s
  10. Movie name                               : The Lovely Bones 2009 1080p BluRay DTS x265-10bit-HDS
  11. Encoded date                             : UTC 2022-07-28 01:20:21
  12. Writing application                      : mkvmerge v67.0.0 ('Under Stars') 64-bit
  13. Writing library                          : libebml v1.4.2 + libmatroska v1.6.4
  14. Video
  15. ID                                       : 1
  16. Format                                   : HEVC
  17. Format/Info                              : High Efficiency Video Coding
  18. Format profile                           : Main [email protected]@High
  19. Codec ID                                 : V_MPEGH/ISO/HEVC
  20. Duration                                 : 2 h 15 min
  21. Bit rate                                 : 8 859 kb/s
  22. Width                                    : 1 920 pixels
  23. Height                                   : 818 pixels
  24. Display aspect ratio                     : 2.35:1
  25. Frame rate mode                          : Constant
  26. Frame rate                               : 23.976 (24000/1001/53875) FPS
  27. Color space                              : YUV
  28. Chroma subsampling                       : 4:2:0
  29. Bit depth                                : 10 bits
  30. Bits/(Pixel*Frame)                       : 0.235
  31. Stream size                              : 8.39 GiB (85%)
  32. Title                                    : [email protected]
  33. Writing library                          : x265 - H.265/HEVC codec
  34. Default                                  : Yes
  35. Forced                                   : No
  36. Audio
  37. ID                                       : 2
  38. Format                                   : DTS
  39. Format/Info                              : Digital Theater Systems
  40. Codec ID                                 : A_DTS
  41. Duration                                 : 2 h 15 min
  42. Bit rate mode                            : Constant
  43. Bit rate                                 : 1 509 kb/s
  44. Channel(s)                               : 6 channels
  45. Channel layout                           : C L R Ls Rs LFE
  46. Sampling rate                            : 48.0 kHz
  47. Frame rate                               : 93.750 FPS (512 SPF)
  48. Bit depth                                : 24 bits
  49. Compression mode                         : Lossy
  50. Stream size                              : 1.43 GiB (15%)
  51. Title                                    : English
  52. Language                                 : English
  53. Default                                  : Yes
  54. Forced                                   : No
  55. Text #1
  56. ID                                       : 3
  57. Format                                   : PGS
  58. Muxing mode                              : zlib
  59. Codec ID                                 : S_HDMV/PGS
  60. Codec ID/Info                            : Picture based subtitle format used on BDs/HD-DVDs
  61. Duration                                 : 2 h 0 min
  62. Bit rate                                 : 27.9 kb/s
  63. Count of elements                        : 1991
  64. Stream size                              : 24.0 MiB (0%)
  65. Title                                    : CHS&ENG
  66. Language                                 : Chinese
  67. Default                                  : Yes
  68. Forced                                   : No
  69. Text #2
  70. ID                                       : 4
  71. Format                                   : PGS
  72. Muxing mode                              : zlib
  73. Codec ID                                 : S_HDMV/PGS
  74. Codec ID/Info                            : Picture based subtitle format used on BDs/HD-DVDs
  75. Duration                                 : 2 h 0 min
  76. Bit rate                                 : 20.5 kb/s
  77. Count of elements                        : 2066
  78. Stream size                              : 17.7 MiB (0%)
  79. Title                                    : CHT
  80. Language                                 : Chinese
  81. Default                                  : Yes
  82. Forced                                   : No
  83. Text #3
  84. ID                                       : 5
  85. Format                                   : PGS
  86. Muxing mode                              : zlib
  87. Codec ID                                 : S_HDMV/PGS
  88. Codec ID/Info                            : Picture based subtitle format used on BDs/HD-DVDs
  89. Duration                                 : 2 h 0 min
  90. Bit rate                                 : 23.5 kb/s
  91. Count of elements                        : 2014
  92. Stream size                              : 20.2 MiB (0%)
  93. Title                                    : ENG
  94. Language                                 : English
  95. Default                                  : Yes
  96. Forced                                   : No
  97. Menu
  98. 00:00:00.000                             : en:第 01 章
  99. 00:10:21.912                             : en:第 02 章
  100. 00:21:41.508                             : en:第 03 章
  101. 00:32:05.006                             : en:第 04 章
  102. 00:44:04.516                             : en:第 05 章
  103. 00:58:47.773                             : en:第 06 章
  104. 01:12:01.524                             : en:第 07 章
  105. 01:25:46.099                             : en:第 08 章
  106. 01:38:16.974                             : en:第 09 章
  107. 01:48:23.204                             : en:第 10 章
  108. 01:57:47.560                             : en:第 11 章
  109. 02:01:54.222                             : en:第 12 章
复制代码

















保举请利用qBittorrent,utorrent,transmission等标准BT软件下载!以获得最快速度。奉求保种!





回复

使用道具 举报

懒得打字嘛,点击右侧快捷回复 【右侧内容,后台自定义】
您需要登录后才可以回帖 登录 | 立即加入

本版积分规则

Archiver|小黑屋| 蓝光电影网 |网站地图

Copyright © 2021 Comsenz Inc. Powered by 蓝光电影网

蓝光电影网

本站内容由用户自主分享和转载自互联网,转载目的在于传递更多信息,并不代表本网赞同其观点和对其真实性负责。

如有侵权、违反国家法律政策行为,请联系我们,我们会第一时间及时清除和处理!

举报反馈邮箱:[email protected]

快速回复 返回顶部 返回列表