找回密码

蓝光电影网

查看: 75|回复: 2

[剧情] 星际旅行10:复仇女神[简繁英字幕].Star.Trek.Nemesis.2002.1080p.BluRay.DD.5.1.x264-TAGHD 11.31GB

[复制链接]
蓝光币
7
发表于 2022-7-29 18:51:10 | 显示全部楼层 |阅读模式


◎标  题 星际观光10:复仇女神
◎译  名 星际迷航10:克星 / 星空奇遇记:星战启迪录(港) / 星舰奇航记10:星战启迪录(台) / 星际争霸战10 / 星舰迷航记10 / Star Trek 10
◎片  名 Star Trek: Nemesis
◎年  代 2002
◎产  地 美国
◎类  别 行动 / 科幻 / 惊悚 / 冒险
◎语  言 英语
◎上映日期 2002-12-13
◎IMDb评分 6.4/10 (78516人评价)
◎IMDb链接 https://www.imdb.com/title/tt0253754/
◎豆瓣评分 7.0/10 (7570人评价)
◎豆瓣链接 https://movie.douban.com/subject/1296702/
◎片  长 116 分钟
◎导  演 斯图尔特·贝尔德 Stuart Baird
◎编  剧 吉恩·罗登贝瑞 Gene Roddenberry
       约翰·洛根 John Logan
       Rick Berman Rick Berman
       布伦特·斯皮内 Brent Spiner
◎演  员 帕特里克·斯图尔特 Patrick Stewart
       乔纳森·弗雷克斯 Jonathan Frakes
       布伦特·斯皮内 Brent Spiner
       莱瓦尔·伯顿 LeVar Burton
       迈克尔·多恩 Michael Dorn
       玛丽娜·赛提斯 Marina Sirtis
       盖茨·麦克法登 Gates McFadden
       汤姆·哈迪 Tom Hardy
       朗·普尔曼 Ron Perlman
       珊农·克奇兰 Shannon Cochran
       迪娜·迈耶 Dina Meyer
       祖德·塞克利拉 Jude Ciccolella
       阿兰·戴尔 Alan Dale
       约翰·博格 John Berg
       凯特·穆格鲁 Kate Mulgrew
       J.帕特里克·麦克康尔马克 J. Patrick McCormack
       威尔·惠顿 Wil Wheaton
       马杰尔·巴雷特 Majel Barrett
       斯图尔特·贝尔德 Stuart Baird
       Bruce Dobos Bruce Dobos
       乌比·戈德堡 Whoopi Goldberg
       杰伊男爵 Baron Jay
       尼古拉斯·拉尼尔 Nicholas Lanier
       Jasmine Lliteras Jasmine Lliteras
       马蒂·马牟利斯 Marti Matulis
       汤姆·莫尔加 Tom Morga
       Brian Daniel Patterson Brian Daniel Patterson
       Guy Richardson Guy Richardson
       布莱恩·辛格 Bryan Singer
       Doug Wax Doug Wax
       吉恩·罗登贝瑞 Gene Roddenberry
       Rick Berman Rick Berman
       杰瑞·高德史姑娘 Jerry Goldsmith
       杰弗里·L·金鲍 Jeffrey L. Kimball
       凯茜·桑德里奇 Cathy Sandrich
       Amanda Mackey Johnson Amanda Mackey Johnson
       Junie Lowry-Johnson Junie Lowry-Johnson
       约翰·M·德维尔 John M. Dwyer
       Herman F. Zimmerman Herman F. Zimmerman
       Donald B. Woodruff Donald B. Woodruff
       鲍勃·林伍德 Bob Ringwood
       艾伦 A. 安彭 Allan A. Apone
       迈克·迈克尔斯 Myke Michaels
       迈克尔·韦斯特莫 Michael Westmore
       里克·斯特拉顿 Rick Stratton
       特里·巴利尔 Terry Baliel
       杰克·加伯 Jake Garber
       Michael Burnett Michael Burnett
       乔伊·萨帕塔 Joy Zapata
       Toni-Ann Walker Toni-Ann Walker
       David DeLeon David DeLeon
       Rebecca De Morrio Rebecca De Morrio
       Karen Asano-Myers Karen Asano-Myers
       Earl Ellis Earl Ellis
       Ellis Burman Jr. Ellis Burman Jr.
       Ora Green Ora Green
       Judy Crown Judy Crown
       吉尔·罗考 Jill Rockow
       Lumas Hamilton Jr. Lumas Hamilton Jr.
       June Westmore June Westmore
       朱莉亚·L·沃克尔 Julia L. Walker
       Bart Mixon Bart Mixon
       佐尔坦·埃雷克 Zoltan Elek
       Elaina P. Schulman Elaina P. Schulman
       Doug Coleman Doug Coleman
       大卫·萨迪 David Sardi
        Cecilia Sweatman
       巴克·德洛姆 Bac DeLorme
       容.格瑞斯 Ron Gress
       Bill Taylor Bill Taylor
       罗恩·桑顿 Ron Thornton
       凯利·波特 Kelly Port
       David S. Williams Jr. David S. Williams Jr.
       Mike Wassel Mike Wassel
       Aaron James McComas Aaron James McComas
       Sarah Coatts Sarah Coatts
       斯科特·罗斯 Scott Ross
       Douglas Bloom Douglas Bloom
       克拉斯·汉克 Claas Henke
       Sherry Hitch Sherry Hitch
       杰夫·沃尔弗顿 Jeff Wolverton
       R. Christopher Biggs R. Christopher Biggs
       Aladino V. Debert Aladino V. Debert
       肖恩·迪韦罗 Sean Devereaux
       布赖恩·贝根 Brian Begun
       Tony Anderson Tony Anderson
       萨姆·爱德华兹 Sam Edwards
       Robert Nederhorst Robert Nederhorst
       Fred Pienkos Fred Pienkos
       罗伯特·罗尔斯 Robert Rowles
       John Mullin John Mullin
       丹·帕特森 Dan Patterson
       马库斯·库尔茨 Markus Kurtz
       乔治·斯蒂文斯 George Stevens
       Sonja Burchard Sonja Burchard
       Rod Ripley Rod Ripley
       Howie Muzika Howie Muzika
       马克·O·福克 Mark O. Forker
       Syd Dutton Syd Dutton
       Pierre Drolet Pierre Drolet
       布莱恩·吉尔 Bryan Grill
       Steve Mellon Steve Mellon
       肯尼思·琼斯 Kenneth Jones
       Michael Kory Michael Kory
       埃里克·纳什 Erik Nash
       杰米森·弗莱 Jamieson Fry
       Chris Y. Yang Chris Y. Yang
       克里斯·道森 Chris Dawson
       乔纳森·埃格斯塔德 Jonathan Egstad
       John Hart John Hart
◎简  介
  企业号宇宙飞船翱翔在太空,在人类和外星人中心传布美意,同时也在提防敌对星球有能够的进犯行为,由于有迹象表白,星际同盟的老对头罗木兰星球有能够倡议新一轮的进犯。皮卡特船主和他的船员们也在谨慎翼翼的观察着局势的停顿,时辰预备投入战役。                                    
                                可就在这时,罗木兰星球发出了和谈的讯息,星际同盟号令企业号前往谈判,当皮卡特船主第一次见到罗木兰星球新的执政官后惊呆了,本来对方就是罗木兰很久之前制造的皮卡特的人类复制品,面临这个难缠的对手,皮卡特船主和他的船员们该若何是好?
  1. ##### MediaInfo ######
  2. General
  3. Unique ID                                : 107231024484420471829521938664549809999 (0x50ABF1B0AE4FA26E75823FF3A23C7F4F)
  4. Complete name                            : Star.Trek.Nemesis.2002.1080p.BluRay.DD.5.1.x264-TAGHD.mkv
  5. Format                                   : Matroska
  6. Format version                           : Version 4
  7. File size                                : 11.3 GiB
  8. Duration                                 : 1 h 56 min
  9. Overall bit rate                         : 13.9 Mb/s
  10. Encoded date                             : UTC 2022-06-10 15:35:13
  11. Writing application                      : mkvmerge v42.0.0 ('Overtime') 64-bit
  12. Writing library                          : libebml v1.3.10 + libmatroska v1.5.2
  13. Video
  14. ID                                       : 1
  15. Format                                   : AVC
  16. Format/Info                              : Advanced Video Codec
  17. Format profile                           : [email protected]
  18. Format settings                          : CABAC / 5 Ref Frames
  19. Format settings, CABAC                   : Yes
  20. Format settings, Reference frames        : 5 frames
  21. Codec ID                                 : V_MPEG4/ISO/AVC
  22. Duration                                 : 1 h 56 min
  23. Bit rate                                 : 13.2 Mb/s
  24. Width                                    : 1 920 pixels
  25. Height                                   : 816 pixels
  26. Display aspect ratio                     : 2.35:1
  27. Frame rate mode                          : Constant
  28. Frame rate                               : 23.976 (24000/1001/53875) FPS
  29. Color space                              : YUV
  30. Chroma subsampling                       : 4:2:0
  31. Bit depth                                : 8 bits
  32. Scan type                                : Progressive
  33. Bits/(Pixel*Frame)                       : 0.352
  34. Stream size                              : 10.8 GiB (95%)
  35. Writing library                          : x264 core 142 r2431+42 c69a006 tMod [[email protected]:2:0 X86_64]
  36. Encoding settings                        : cabac=1 / ref=5 / deblock=1:-3:-3 / analyse=0x3:0x113 / me=umh / subme=11 / psy=1 / fade_compensate=0.00 / psy_rd=1.05:0.00 / mixed_ref=1 / me_range=32 / chroma_me=1 / trellis=2 / 8x8dct=1 / cqm=0 / deadzone=21,11 / fast_pskip=0 / chroma_qp_offset=-2 / threads=24 / lookahead_threads=4 / sliced_threads=0 / nr=0 / decimate=0 / interlaced=0 / NTM4NzU= / bluray_compat=0 / constrained_intra=0 / fgo=0 / bframes=8 / b_pyramid=2 / b_adapt=2 / b_bias=0 / direct=3 / weightb=1 / open_gop=0 / weightp=2 / keyint=250 / keyint_min=23 / NTM4NzU=uuDQuD2mJt9fsCf / scenecut=40 / intra_refresh=0 / rc_lookahead=60 / rc=crf / mbtree=0 / crf=17.5000 / qcomp=0.60 / qpmin=0:0:0 / qpmax=69:69:69 / qpstep=4 / vbv_maxrate=62500 / vbv_bufsize=78125 / crf_max=0.0 / nal_hrd=none / filler=0 / NTM4NzU=LmsMAP37EqsCpk / ip_ratio=1.30 / pb_ratio=1.20 / aq=3:0.80 / aq-sensitivity=10.00 / aq-factor=1.00:1.00:1.00 / aq2=0 / aq3=0
  37. Default                                  : Yes
  38. Forced                                   : No
  39. Color range                              : Limited
  40. Color primaries                          : BT.709
  41. Transfer characteristics                 : BT.709
  42. Matrix coefficients                      : BT.709
  43. Audio
  44. ID                                       : 2
  45. Format                                   : AC-3
  46. Format/Info                              : Audio Coding 3
  47. Commercial name                          : Dolby Digital
  48. Codec ID                                 : A_AC3
  49. Duration                                 : 1 h 56 min
  50. Bit rate mode                            : Constant
  51. Bit rate                                 : 640 kb/s
  52. Channel(s)                               : 6 channels
  53. Channel layout                           : L R C LFE Ls Rs
  54. Sampling rate                            : 48.0 kHz
  55. Frame rate                               : 31.250 FPS (1536 SPF)
  56. Compression mode                         : Lossy
  57. Stream size                              : 533 MiB (5%)
  58. Language                                 : English
  59. Service kind                             : Complete Main
  60. Default                                  : Yes
  61. Forced                                   : No
  62. Text #1
  63. ID                                       : 3
  64. Format                                   : PGS
  65. Muxing mode                              : zlib
  66. Codec ID                                 : S_HDMV/PGS
  67. Codec ID/Info                            : Picture based subtitle format used on BDs/HD-DVDs
  68. Duration                                 : 1 h 46 min
  69. Bit rate                                 : 30.4 kb/s
  70. Count of elements                        : 2070
  71. Stream size                              : 23.2 MiB (0%)
  72. Language                                 : English
  73. Default                                  : No
  74. Forced                                   : No
  75. Text #2
  76. ID                                       : 4
  77. Format                                   : PGS
  78. Muxing mode                              : zlib
  79. Codec ID                                 : S_HDMV/PGS
  80. Codec ID/Info                            : Picture based subtitle format used on BDs/HD-DVDs
  81. Duration                                 : 1 h 46 min
  82. Bit rate                                 : 31.2 kb/s
  83. Count of elements                        : 2200
  84. Stream size                              : 23.8 MiB (0%)
  85. Title                                    : (SDH)
  86. Language                                 : English
  87. Default                                  : No
  88. Forced                                   : No
  89. Text #3
  90. ID                                       : 5
  91. Format                                   : PGS
  92. Muxing mode                              : zlib
  93. Codec ID                                 : S_HDMV/PGS
  94. Codec ID/Info                            : Picture based subtitle format used on BDs/HD-DVDs
  95. Duration                                 : 1 h 46 min
  96. Bit rate                                 : 21.0 kb/s
  97. Count of elements                        : 1662
  98. Stream size                              : 16.0 MiB (0%)
  99. Title                                    : CHS
  100. Language                                 : Chinese
  101. Default                                  : Yes
  102. Forced                                   : No
  103. Text #4
  104. ID                                       : 6
  105. Format                                   : PGS
  106. Muxing mode                              : zlib
  107. Codec ID                                 : S_HDMV/PGS
  108. Codec ID/Info                            : Picture based subtitle format used on BDs/HD-DVDs
  109. Duration                                 : 1 h 46 min
  110. Bit rate                                 : 21.4 kb/s
  111. Count of elements                        : 1662
  112. Stream size                              : 16.3 MiB (0%)
  113. Title                                    : CHT
  114. Language                                 : Chinese
  115. Default                                  : No
  116. Forced                                   : No
  117. Menu
  118. 00:00:00.000                             : en:第 01 章
  119. 00:04:15.297                             : en:第 02 章
  120. 00:08:28.842                             : en:第 03 章
  121. 00:12:00.678                             : en:第 04 章
  122. 00:20:14.797                             : en:第 05 章
  123. 00:23:21.859                             : en:第 06 章
  124. 00:25:47.755                             : en:第 07 章
  125. 00:28:14.484                             : en:第 08 章
  126. 00:34:32.195                             : en:第 09 章
  127. 00:38:42.820                             : en:第 10 章
  128. 00:47:49.700                             : en:第 11 章
  129. 00:51:54.737                             : en:第 12 章
  130. 00:56:56.330                             : en:第 13 章
  131. 01:02:19.736                             : en:第 14 章
  132. 01:06:25.773                             : en:第 15 章
  133. 01:09:49.435                             : en:第 16 章
  134. 01:16:48.020                             : en:第 17 章
  135. 01:20:37.624                             : en:第 18 章
  136. 01:25:35.547                             : en:第 19 章
  137. 01:31:34.906                             : en:第 20 章
  138. 01:35:23.384                             : en:第 21 章
  139. 01:40:29.941                             : en:第 22 章
  140. 01:45:07.801                             : en:第 23 章
  141. 01:49:21.180                             : en:第 24 章
复制代码

















保举请利用qBittorrent,utorrent,transmission等标准BT软件下载!以获得最快速度。奉求保种!





回复

使用道具 举报

蓝光币
435
发表于 2022-7-29 21:45:41 | 显示全部楼层

楼主太厉害了!楼主,电影应该很好看我觉得蓝光电影网真是个好地方!
回复 支持 反对

使用道具 举报

蓝光币
113
发表于 2022-7-30 21:12:09 | 显示全部楼层
楼主发贴辛苦了,谢谢楼主分享!我觉得蓝光电影网是注册对了!
回复 支持 反对

使用道具 举报

懒得打字嘛,点击右侧快捷回复 【右侧内容,后台自定义】
您需要登录后才可以回帖 登录 | 立即加入

本版积分规则

Archiver|小黑屋| 蓝光电影网 |网站地图

Copyright © 2021 Comsenz Inc. Powered by 蓝光电影网

蓝光电影网

本站内容由用户自主分享和转载自互联网,转载目的在于传递更多信息,并不代表本网赞同其观点和对其真实性负责。

如有侵权、违反国家法律政策行为,请联系我们,我们会第一时间及时清除和处理!

举报反馈邮箱:[email protected]

快速回复 返回顶部 返回列表