找回密码

蓝光电影网

查看: 36|回复: 0

[剧情] 斯宾塞[简繁英字幕].Spencer.2021.1080p.BluRay.DTS.x265-10bit-TAGHD 8.87GB

[复制链接]
蓝光币
7
发表于 2022-7-29 18:51:13 | 显示全部楼层 |阅读模式


◎标  题 斯宾塞
◎译  名 斯潘塞 / 黛妃(台) / 史宾沙(港) / 史宾赛(台)
◎片  名 Spencer
◎年  代 2021
◎产  地 英国 / 德国 / 美国 / 智利
◎类  别 剧情 / 列传
◎语  言 英语
◎上映日期 2021-09-03(威尼斯电影节) / 2021-11-05(美国)
◎IMDb评分 6.9/10 (20911人评价)
◎IMDb链接 https://www.imdb.com/title/tt12536294/
◎豆瓣评分 6.6/10 (11757人评价)
◎豆瓣链接 https://movie.douban.com/subject/35101435/
◎片  长 117分钟
◎导  演 帕布罗·拉雷恩 Pablo Larraín
◎编  剧 斯蒂文·奈特 Steven Knight
◎演  员 克里斯汀·斯图尔特 Kristen Stewart
       蒂莫西·斯波 Timothy Spall
       杰克·法辛 Jack Farthing
       西恩·哈里斯 Sean Harris
       莎莉·霍金斯 Sally Hawkins
       杰克·尼伦 Jack Nielen
       弗雷迪·斯普里 Freddie Spry
       斯特拉·古奈特 Stella Gonet
       理查德·塞梅尔 Richard Sammel
       伊丽莎白·贝林顿 Elizabeth Berrington
       艾米·曼森 Amy Manson
       詹姆斯·哈克尼斯 James Harkness
       劳拉·本森 Laura Benson
       约翰·基奥 John Keogh
       米迦勒·埃普 Michael Epp
       Ian Ashpitel Ian Ashpitel
       强尼·格林伍德 Jonny Greenwood
       克莱尔·马松 Claire Mathon
       盖·亨德里克斯·戴斯 Guy Hendrix Dyas
       杰奎琳·杜兰 Jacqueline Durran
◎标  签 英国 / 列传 / 2021 / 女性 / 王室 / 剧情 / 历史 / 婚姻
◎简  介
  报告1990年月早期关键性的一个周末,戴安娜下了决心:她跟查尔斯王子的婚姻不会有好成果,必须背叛那条“皇后预备役”的门路。影片故事发生在3天内,圣诞沐日时代的桑德灵汉姆庄园。
  1. ##### MediaInfo ######
  2. General
  3. Unique ID                                : 293246005556446347590662553689001928245 (0xDC9D205654CDD8D29838331806EDA635)
  4. Complete name                            : Spencer.2021.1080p.BluRay.DTS.x265-10bit-TAGHD.mkv
  5. Format                                   : Matroska
  6. Format version                           : Version 4
  7. File size                                : 8.87 GiB
  8. Duration                                 : 1 h 56 min
  9. Overall bit rate                         : 10.9 Mb/s
  10. Encoded date                             : UTC 2022-05-17 12:18:42
  11. Writing application                      : mkvmerge v42.0.0 ('Overtime') 64-bit
  12. Writing library                          : libebml v1.3.10 + libmatroska v1.5.2
  13. Video
  14. ID                                       : 1
  15. Format                                   : HEVC
  16. Format/Info                              : High Efficiency Video Coding
  17. Format profile                           : Main [email protected]@High
  18. Codec ID                                 : V_MPEGH/ISO/HEVC
  19. Duration                                 : 1 h 56 min
  20. Bit rate                                 : 9 328 kb/s
  21. Width                                    : 1 800 pixels
  22. Height                                   : 1 080 pixels
  23. Display aspect ratio                     : 5:3
  24. Frame rate mode                          : Constant
  25. Frame rate                               : 23.976 (24000/1001/53875) FPS
  26. Color space                              : YUV
  27. Chroma subsampling                       : 4:2:0
  28. Bit depth                                : 10 bits
  29. Bits/(Pixel*Frame)                       : 0.200
  30. Stream size                              : 7.61 GiB (86%)
  31. Writing library                          : x265 3.0+2-ge71f790de+23:[Windows][GCC 8.2.1][64 bit] Yuuki 10bit
  32. Encoding settings                        : rc=crf / crf=19.8000 / qcomp=0.60 / qpstep=4 / stats-write=0 / stats-read=0 / vbv-maxrate=160000 / vbv-bufsize=160000 / vbv-init=0.9 / crf-max=0.0 / crf-min=0.0 / no-lossless / no-cu-lossless / aq-mode=3 / aq-strength=0.80 / cbqpoffs=-2 / crqpoffs=-2 / ipratio=1.40 / pbratio=1.30 / psy-rd=0.90 / psy-rdoq=0.40 / deblock=-3:-3 / ref=4 / limit-refs=1 / limit-modes / bframes=12 / b-adapt=2 / bframe-bias=0 / b-pyramid / b-intra / weightp / weightb / min-keyint=23 / max-keyint=480 / rc-lookahead=40 / gop-lookahead=0 / NTM4NzU=uuDQuD2mJt9fsCf / scenecut=40 / radl=0 / max-cu-size=32 / min-cu-size=8 / me=3 / subme=7 / merange=24 / rdoq-level=1 / rd=4 / rdpenalty=0 / dynamic-rd=0.00 / no-rd-refine / ----- / no-cutree / no-sao / no-rect / no-amp / no-open-gop / wpp / no-pmode / no-pme / no-psnr / no-ssim / nr-intra=0 / nr-inter=0 / no-constrained-intra / strong-intra-smoothing / max-tu-size=32 / tu-inter-depth=3 / tu-intra-depth=3 / limit-tu=4 / qg-size=8 / qpmax=69 / qpmin=0 / ----- / cpuid=538751111039 / frame-threads=4 / numa-pools=16 / log-level=2 / input-csp=1 / input-res=1800x1080 / interlace=0 / level-idc=51 / high-tier=1 / uhd-bd=0 / no-allow-non-conformance / no-repeat-headers / no-aud / no-hrd / info / hash=0 / no-temporal-layers / lookahead-slices=0 / no-splice / no-intra-refresh / no-ssim-rd / signhide / no-tskip / max-merge=3 / temporal-mvp / no-analyze-src-pics / no-sao-non-deblock / no-early-skip / rskip / no-fast-intra / no-tskip-fast / no-splitrd-skip / zone-count=0 / no-strict-cbr / no-rc-grain / no-const-vbv / sar=0 / overscan=0 / videoformat=5 / range=0 / colorprim=2 / transfer=2 / colormatrix=2 / chromaloc=0 / display-window=0 / max-cll=0,0 / min-luma=0 / max-luma=1023 / log2-max-poc-lsb=8 / vui-timing-info / vui-hrd-info / slices=1 / no-opt-qp-pps / no-opt-ref-list-length-pps / no-multi-pass-opt-rps / scenecut-bias=0.05 / no-opt-cu-delta-qp / no-aq-motion / no-hdr / no-hdr-opt / no-dhdr10-opt / no-idr-recovery-sei / analysis-reuse-level=5 / scale-factor=0 / refine-intra=0 / refine-inter=0 / refine-mv=0 / refine-ctu-distortion=0 / no-limit-sao / ctu-info=0 / no-lowpass-dct / refine-analysis-type=0 / copy-pic=1 / max-ausize-factor=1.0 / no-dynamic-refine / no-single-sei / no-hevc-aq / qp-adaptation-range=1.00
  33. Default                                  : Yes
  34. Forced                                   : No
  35. Audio
  36. ID                                       : 2
  37. Format                                   : DTS
  38. Format/Info                              : Digital Theater Systems
  39. Codec ID                                 : A_DTS
  40. Duration                                 : 1 h 56 min
  41. Bit rate mode                            : Constant
  42. Bit rate                                 : 1 509 kb/s
  43. Channel(s)                               : 6 channels
  44. Channel layout                           : C L R Ls Rs LFE
  45. Sampling rate                            : 48.0 kHz
  46. Frame rate                               : 93.750 FPS (512 SPF)
  47. Bit depth                                : 24 bits
  48. Compression mode                         : Lossy
  49. Stream size                              : 1.23 GiB (14%)
  50. Language                                 : English
  51. Default                                  : Yes
  52. Forced                                   : No
  53. Text #1
  54. ID                                       : 3
  55. Format                                   : PGS
  56. Muxing mode                              : zlib
  57. Codec ID                                 : S_HDMV/PGS
  58. Codec ID/Info                            : Picture based subtitle format used on BDs/HD-DVDs
  59. Duration                                 : 1 h 56 min
  60. Bit rate                                 : 21.7 kb/s
  61. Count of elements                        : 2912
  62. Stream size                              : 18.1 MiB (0%)
  63. Language                                 : English
  64. Default                                  : No
  65. Forced                                   : No
  66. Text #2
  67. ID                                       : 4
  68. Format                                   : PGS
  69. Muxing mode                              : zlib
  70. Codec ID                                 : S_HDMV/PGS
  71. Codec ID/Info                            : Picture based subtitle format used on BDs/HD-DVDs
  72. Duration                                 : 1 h 48 min
  73. Bit rate                                 : 23.3 kb/s
  74. Count of elements                        : 1982
  75. Stream size                              : 18.0 MiB (0%)
  76. Title                                    : CHS
  77. Language                                 : Chinese
  78. Default                                  : Yes
  79. Forced                                   : No
  80. Text #3
  81. ID                                       : 5
  82. Format                                   : PGS
  83. Muxing mode                              : zlib
  84. Codec ID                                 : S_HDMV/PGS
  85. Codec ID/Info                            : Picture based subtitle format used on BDs/HD-DVDs
  86. Duration                                 : 1 h 48 min
  87. Bit rate                                 : 23.7 kb/s
  88. Count of elements                        : 1982
  89. Stream size                              : 18.3 MiB (0%)
  90. Title                                    : CHT
  91. Language                                 : Chinese
  92. Default                                  : No
  93. Forced                                   : No
  94. Menu
  95. 00:00:00.000                             : en:第 01 章
  96. 00:05:44.928                             : en:第 02 章
  97. 00:13:40.111                             : en:第 03 章
  98. 00:30:25.115                             : en:第 04 章
  99. 00:44:10.857                             : en:第 05 章
  100. 00:57:36.995                             : en:第 06 章
  101. 01:08:41.576                             : en:第 07 章
  102. 01:21:19.249                             : en:第 08 章
  103. 01:33:11.628                             : en:第 09 章
  104. 01:38:46.087                             : en:第 10 章
  105. 01:45:46.757                             : en:第 11 章
  106. 01:50:16.527                             : en:第 12 章
复制代码

















保举请利用qBittorrent,utorrent,transmission等标准BT软件下载!以获得最快速度。奉求保种!





回复

使用道具 举报

懒得打字嘛,点击右侧快捷回复 【右侧内容,后台自定义】
您需要登录后才可以回帖 登录 | 立即加入

本版积分规则

Archiver|小黑屋| 蓝光电影网 |网站地图

Copyright © 2021 Comsenz Inc. Powered by 蓝光电影网

蓝光电影网

本站内容由用户自主分享和转载自互联网,转载目的在于传递更多信息,并不代表本网赞同其观点和对其真实性负责。

如有侵权、违反国家法律政策行为,请联系我们,我们会第一时间及时清除和处理!

举报反馈邮箱:[email protected]

快速回复 返回顶部 返回列表