找回密码

蓝光电影网

查看: 151|回复: 0

[剧情] 星际旅行8:第一类接触[简繁英字幕].Star.Trek.First.Contact.1996.1080p.BluRay.DD.5.1.x264-TAGHD 10.24GB

[复制链接]
蓝光币
8
发表于 2022-7-29 18:51:15 | 显示全部楼层 |阅读模式


◎标  题 星际观光8:第一类打仗
◎译  名 星际迷航8:第一次打仗 / 星空奇遇记8:星空第一击(港) / 星舰奇航记8:战役巡航(台) / 星际争霸战8 / 星舰迷航记8 / Star Trek 8
◎片  名 Star Trek: First Contact
◎年  代 1996
◎产  地 美国
◎类  别 行动 / 科幻 / 惊悚 / 冒险
◎语  言 英语
◎上映日期 1996-11-22
◎IMDb评分 7.6/10 (124287人评价)
◎IMDb链接 https://www.imdb.com/title/tt0117731/
◎豆瓣评分 7.9/10 (7553人评价)
◎豆瓣链接 https://movie.douban.com/subject/1299888/
◎片  长 111 分钟
◎导  演 乔纳森·弗雷克斯 Jonathan Frakes
◎编  剧 布兰农·布拉加 Brannon Braga
       罗纳德·D·摩尔 Ronald D. Moore
       吉恩·罗登贝瑞 Gene Roddenberry
       Rick Berman Rick Berman
◎演  员 帕特里克·斯图尔特 Patrick Stewart
       乔纳森·弗雷克斯 Jonathan Frakes
       布伦特·斯皮内 Brent Spiner
       莱瓦尔·伯顿 LeVar Burton
       迈克尔·多恩 Michael Dorn
       盖茨·麦克法登 Gates McFadden
       玛丽娜·赛提斯 Marina Sirtis
       阿尔法·伍达德 Alfre Woodard
       詹姆斯·克伦威尔 James Cromwell
       艾丽丝·克里奇 Alice Krige
       尼尔·麦克唐纳 Neal McDonough
       马尼耶·麦克费尔 Marnie McPhail
       罗伯特·皮卡多 Robert Picardo
       德怀特·舒尔茨 Dwight Schultz
       乔伊·阿那亚 Joey Anaya
       伊桑·菲利普斯 Ethan Phillips
       亚当·斯科特 Adam Scott
       斯科特·哈文 Scott Haven
       罗纳德·D·摩尔 Ronald D. Moore
       布兰农·布拉加 Brannon Braga
       Jon David Casey Jon David Casey
       唐·斯达克 Don Stark
       大卫·考吉尔 David Cowgill
       杰夫·库普伍德 Jeff Coopwood
       Michael Zaslow Michael Zaslow
       马杰尔·巴雷特 Majel Barrett
       佩蒂·安武 Patti Yasutake
       Rick Berman Rick Berman
       杰瑞·高德史姑娘 Jerry Goldsmith
       马修·莱昂涅蒂 Matthew F. Leonetti
       约翰·W·惠勒 John W. Wheeler
       Junie Lowry-Johnson Junie Lowry-Johnson
       约翰·M·德维尔 John M. Dwyer
       Herman F. Zimmerman Herman F. Zimmerman
       Robert Blackman Robert Blackman
       黛博拉·埃弗顿 Deborah Everton
       Barbara Ronci Barbara Ronci
       James MacKinnon James MacKinnon
       Mary Kay Morse Mary Kay Morse
       R. Stephen Weber R. Stephen Weber
       June Westmore June Westmore
       斯科特·维勒尔 Scott Wheeler
       卡米尔·卡尔维 Camille Calvet
       Mark Bussan Mark Bussan
       Ellis Burman Jr. Ellis Burman Jr.
       Danny Valencia Danny Valencia
       杰克·加伯 Jake Garber
       蒙蒂·韦斯特摩尔 Monty Westmore
       Bart Mixon Bart Mixon
       迈克尔·韦斯特莫 Michael Westmore
       罗斯玛丽C·克雷莫纳 Rosemary C. Cremona
       David Ticotin David Ticotin
       Jerry Fleck Jerry Fleck
       亚历克斯·杰格尔 Alex Jaeger
       方·戴维斯 Fon Davis
       Cathy Burrows Cathy Burrows
       Jennifer German Jennifer German
       克里斯托弗·埃文斯 Christopher Evans
       蒂姆·亚历山大 Tim Alexander
       乔治·墨菲 George Murphy
       Patrick T. Myers Patrick T. Myers
       克莱格·巴朗 Craig Barron
       Amanda K. Montgomery Amanda K. Montgomery
       Lawrence Littleton Lawrence Littleton
       John Haggar John Haggar
       Rick Rische Rick Rische
       格雷格·金布尔 Greg Kimble
       Mark Moore Mark Moore
       约翰·诺尔 John Knoll
       克里斯托弗·霍瓦斯 Christopher Horvath
       Daniel Kramer Daniel Kramer
       Kenneth Littleton Kenneth Littleton
       Tad Leckman Tad Leckman
       卡尔·胡珀 Carl Hooper
       亚伦·海耶 Aaron Haye
       亚当·霍华德 Adam Howard
       Richard Patterson Richard Patterson
       Michael Gleason Michael Gleason
       Pat Sweeney Pat Sweeney
       Chad Taylor Chad Taylor
       Scott Frankel Scott Frankel
       Mike Wassel Mike Wassel
       Andrea D'Amico Andrea D'Amico
       Kirk Cadrette Kirk Cadrette
       行弘进 Susumu Yukuhiro
       Dugan Beach Dugan Beach
       罗伯特·斯特罗姆伯格 Robert Stromberg
       迈克尔·彼得森 Michael Peterson
       Syd Dutton Syd Dutton
       卢克·奥伯恩 Luke O'Byrne
       哈比布·扎尔加普尔 Habib Zargarpour
       Martin Rosenberg Martin Rosenberg
       托马斯·罗塞特 Thomas Rosseter
       乔纳森·罗斯巴特 Jonathan Rothbart
       肯尼斯·史姑娘 Kenneth Smith
       Scott Rader Scott Rader
◎简  介
  本片是以地球人与瓦肯人的“第一类打仗”事务为布景,将重心放在《星际迷航之下一代》电视系列剧中的大敌『博格人』。                                    
                                企业号正在宇宙空间做例行巡航时,舰长皮卡特接到密电,称博格人已结合其他星系的气力,预备向地球倡议进犯。由于舰长皮卡特曾受敌方俘虏并异化,星际舰队对其不很信赖,故没有派其出战。皮卡特掉臂号令,仍然介入战役,以后企业号跟从博格人的时候漩涡回到21世纪,以阻挡博格人试图改变人类的外星成长史到达征服地球的诡计。
  1. ##### MediaInfo ######
  2. General
  3. Unique ID                                : 65994069330054100167898704431804285511 (0x31A5FED455B52095DFB77012BE7F8247)
  4. Complete name                            : Star.Trek.First.Contact.1996.1080p.BluRay.DD.5.1.x264-TAGHD.mkv
  5. Format                                   : Matroska
  6. Format version                           : Version 4
  7. File size                                : 10.2 GiB
  8. Duration                                 : 1 h 50 min
  9. Overall bit rate                         : 13.2 Mb/s
  10. Encoded date                             : UTC 2022-06-10 18:26:01
  11. Writing application                      : mkvmerge v42.0.0 ('Overtime') 64-bit
  12. Writing library                          : libebml v1.3.10 + libmatroska v1.5.2
  13. Video
  14. ID                                       : 1
  15. Format                                   : AVC
  16. Format/Info                              : Advanced Video Codec
  17. Format profile                           : [email protected]
  18. Format settings                          : CABAC / 5 Ref Frames
  19. Format settings, CABAC                   : Yes
  20. Format settings, Reference frames        : 5 frames
  21. Codec ID                                 : V_MPEG4/ISO/AVC
  22. Duration                                 : 1 h 50 min
  23. Bit rate                                 : 12.5 Mb/s
  24. Width                                    : 1 920 pixels
  25. Height                                   : 818 pixels
  26. Display aspect ratio                     : 2.35:1
  27. Frame rate mode                          : Constant
  28. Frame rate                               : 23.976 (24000/1001/53875) FPS
  29. Color space                              : YUV
  30. Chroma subsampling                       : 4:2:0
  31. Bit depth                                : 8 bits
  32. Scan type                                : Progressive
  33. Bits/(Pixel*Frame)                       : 0.332
  34. Stream size                              : 9.67 GiB (94%)
  35. Writing library                          : x264 core 142 r2431+42 c69a006 tMod [[email protected]:2:0 X86_64]
  36. Encoding settings                        : cabac=1 / ref=5 / deblock=1:-3:-3 / analyse=0x3:0x113 / me=umh / subme=11 / psy=1 / fade_compensate=0.00 / psy_rd=1.05:0.00 / mixed_ref=1 / me_range=32 / chroma_me=1 / trellis=2 / 8x8dct=1 / cqm=0 / deadzone=21,11 / fast_pskip=0 / chroma_qp_offset=-2 / threads=24 / lookahead_threads=4 / sliced_threads=0 / nr=0 / decimate=0 / interlaced=0 / NTM4NzU= / bluray_compat=0 / constrained_intra=0 / fgo=0 / bframes=8 / b_pyramid=2 / b_adapt=2 / b_bias=0 / direct=3 / weightb=1 / open_gop=0 / weightp=2 / keyint=250 / keyint_min=23 / NTM4NzU=uuDQuD2mJt9fsCf / scenecut=40 / intra_refresh=0 / rc_lookahead=60 / rc=crf / mbtree=0 / crf=16.0000 / qcomp=0.60 / qpmin=0:0:0 / qpmax=69:69:69 / qpstep=4 / vbv_maxrate=62500 / vbv_bufsize=78125 / crf_max=0.0 / nal_hrd=none / filler=0 / NTM4NzU=LmsMAP37EqsCpk / ip_ratio=1.30 / pb_ratio=1.20 / aq=3:0.80 / aq-sensitivity=10.00 / aq-factor=1.00:1.00:1.00 / aq2=0 / aq3=0
  37. Default                                  : Yes
  38. Forced                                   : No
  39. Color range                              : Limited
  40. Color primaries                          : BT.709
  41. Transfer characteristics                 : BT.709
  42. Matrix coefficients                      : BT.709
  43. Audio
  44. ID                                       : 2
  45. Format                                   : AC-3
  46. Format/Info                              : Audio Coding 3
  47. Commercial name                          : Dolby Digital
  48. Codec ID                                 : A_AC3
  49. Duration                                 : 1 h 50 min
  50. Bit rate mode                            : Constant
  51. Bit rate                                 : 640 kb/s
  52. Channel(s)                               : 6 channels
  53. Channel layout                           : L R C LFE Ls Rs
  54. Sampling rate                            : 48.0 kHz
  55. Frame rate                               : 31.250 FPS (1536 SPF)
  56. Compression mode                         : Lossy
  57. Stream size                              : 507 MiB (5%)
  58. Language                                 : English
  59. Service kind                             : Complete Main
  60. Default                                  : Yes
  61. Forced                                   : No
  62. Text #1
  63. ID                                       : 3
  64. Format                                   : PGS
  65. Muxing mode                              : zlib
  66. Codec ID                                 : S_HDMV/PGS
  67. Codec ID/Info                            : Picture based subtitle format used on BDs/HD-DVDs
  68. Duration                                 : 1 h 40 min
  69. Bit rate                                 : 33.6 kb/s
  70. Count of elements                        : 2070
  71. Stream size                              : 24.3 MiB (0%)
  72. Language                                 : English
  73. Default                                  : No
  74. Forced                                   : No
  75. Text #2
  76. ID                                       : 4
  77. Format                                   : PGS
  78. Muxing mode                              : zlib
  79. Codec ID                                 : S_HDMV/PGS
  80. Codec ID/Info                            : Picture based subtitle format used on BDs/HD-DVDs
  81. Duration                                 : 1 h 44 min
  82. Bit rate                                 : 35.1 kb/s
  83. Count of elements                        : 2332
  84. Stream size                              : 26.4 MiB (0%)
  85. Title                                    : (SDH)
  86. Language                                 : English
  87. Default                                  : No
  88. Forced                                   : No
  89. Text #3
  90. ID                                       : 5
  91. Format                                   : PGS
  92. Muxing mode                              : zlib
  93. Codec ID                                 : S_HDMV/PGS
  94. Codec ID/Info                            : Picture based subtitle format used on BDs/HD-DVDs
  95. Duration                                 : 1 h 43 min
  96. Bit rate                                 : 29.5 kb/s
  97. Count of elements                        : 2080
  98. Stream size                              : 21.9 MiB (0%)
  99. Title                                    : CHS
  100. Language                                 : Chinese
  101. Default                                  : Yes
  102. Forced                                   : No
  103. Text #4
  104. ID                                       : 6
  105. Format                                   : PGS
  106. Muxing mode                              : zlib
  107. Codec ID                                 : S_HDMV/PGS
  108. Codec ID/Info                            : Picture based subtitle format used on BDs/HD-DVDs
  109. Duration                                 : 1 h 43 min
  110. Bit rate                                 : 30.1 kb/s
  111. Count of elements                        : 2080
  112. Stream size                              : 22.4 MiB (0%)
  113. Title                                    : CHT
  114. Language                                 : Chinese
  115. Default                                  : No
  116. Forced                                   : No
  117. Text #5
  118. ID                                       : 7
  119. Format                                   : PGS
  120. Muxing mode                              : zlib
  121. Codec ID                                 : S_HDMV/PGS
  122. Codec ID/Info                            : Picture based subtitle format used on BDs/HD-DVDs
  123. Duration                                 : 1 h 43 min
  124. Bit rate                                 : 48.2 kb/s
  125. Count of elements                        : 2080
  126. Stream size                              : 35.8 MiB (0%)
  127. Title                                    : CHS&ENG
  128. Language                                 : Chinese
  129. Default                                  : No
  130. Forced                                   : No
  131. Text #6
  132. ID                                       : 8
  133. Format                                   : PGS
  134. Muxing mode                              : zlib
  135. Codec ID                                 : S_HDMV/PGS
  136. Codec ID/Info                            : Picture based subtitle format used on BDs/HD-DVDs
  137. Duration                                 : 1 h 43 min
  138. Bit rate                                 : 48.8 kb/s
  139. Count of elements                        : 2080
  140. Stream size                              : 36.2 MiB (0%)
  141. Title                                    : CHT&ENG
  142. Language                                 : Chinese
  143. Default                                  : No
  144. Forced                                   : No
  145. Menu
  146. 00:00:00.000                             : en:第 01 章
  147. 00:02:48.668                             : en:第 02 章
  148. 00:04:45.243                             : en:第 03 章
  149. 00:07:30.784                             : en:第 04 章
  150. 00:11:52.629                             : en:第 05 章
  151. 00:13:54.917                             : en:第 06 章
  152. 00:17:21.958                             : en:第 07 章
  153. 00:22:25.636                             : en:第 08 章
  154. 00:24:24.838                             : en:第 09 章
  155. 00:25:52.885                             : en:第 10 章
  156. 00:27:08.752                             : en:第 11 章
  157. 00:28:10.063                             : en:第 12 章
  158. 00:31:14.289                             : en:第 13 章
  159. 00:37:50.935                             : en:第 14 章
  160. 00:39:16.354                             : en:第 15 章
  161. 00:43:52.171                             : en:第 16 章
  162. 00:46:13.604                             : en:第 17 章
  163. 00:49:17.580                             : en:第 18 章
  164. 00:55:11.850                             : en:第 19 章
  165. 00:58:20.122                             : en:第 20 章
  166. 01:01:31.730                             : en:第 21 章
  167. 01:05:16.287                             : en:第 22 章
  168. 01:13:52.261                             : en:第 23 章
  169. 01:16:24.079                             : en:第 24 章
  170. 01:23:20.704                             : en:第 25 章
  171. 01:25:36.548                             : en:第 26 章
  172. 01:28:45.153                             : en:第 27 章
  173. 01:33:33.775                             : en:第 28 章
  174. 01:37:31.637                             : en:第 29 章
  175. 01:39:59.827                             : en:第 30 章
  176. 01:45:34.912                             : en:第 31 章
复制代码

















保举请利用qBittorrent,utorrent,transmission等标准BT软件下载!以获得最快速度。奉求保种!





回复

使用道具 举报

懒得打字嘛,点击右侧快捷回复 【右侧内容,后台自定义】
您需要登录后才可以回帖 登录 | 立即加入

本版积分规则

Archiver|小黑屋| 蓝光电影网 |网站地图

Copyright © 2021 Comsenz Inc. Powered by 蓝光电影网

蓝光电影网

本站内容由用户自主分享和转载自互联网,转载目的在于传递更多信息,并不代表本网赞同其观点和对其真实性负责。

如有侵权、违反国家法律政策行为,请联系我们,我们会第一时间及时清除和处理!

举报反馈邮箱:[email protected]

快速回复 返回顶部 返回列表