找回密码

蓝光电影网

查看: 76|回复: 0

[剧情] 不害臊的姑娘[中文字幕].Impudent.Girl.1985.1080p.BluRay.DTS.x265-10bit-BATHD 8.25GB

[复制链接]
蓝光币
7
发表于 2022-7-29 18:51:42 | 显示全部楼层 |阅读模式


◎标  题 不怕羞的姑娘
◎译  名 不循分的姑娘 / 豪情夏洛蒂 / 夏洛蒂 / Impudent Girl
◎片  名 L'effrontée
◎年  代 1985
◎产  地 法国
◎类  别 笑剧 / 恋爱 / 音乐
◎语  言 法语
◎上映日期 1985-12-11
◎IMDb评分 6.9/10 (1938人评价)
◎IMDb链接 https://www.imdb.com/title/tt0089072/
◎豆瓣评分 7.7/10 (2404人评价)
◎豆瓣链接 https://movie.douban.com/subject/1441409/
◎片  长 96 分钟
◎导  演 克洛德·米勒 Claude Miller
◎编  剧 克洛德·米勒 Claude Miller
       吕克·贝罗 Luc Béraud
       Annie Miller Annie Miller
       贝尔纳·斯多拉 Bernard Stora
◎演  员 夏洛特·甘斯布 Charlotte Gainsbourg
       克洛蒂尔德·博东 Clothilde Baudon
       朱莉·格伦 Julie Glenn
       贝纳德特·拉封 Bernadette Lafont
       让-克洛德·布里亚利 Jean-Claude Brialy
       让-菲利普·艾科菲 Jean-Philippe Écoffey
       拉乌尔·比勒 Raoul Billerey
       西蒙德拉卜若思 Simon de La Brosse
       Armand Barbault Armand Barbault
       Alain Jomy Alain Jomy
       阿尔贝·于尔根松 Albert Jurgenson
       多米尼克·贝纳尔 Dominique Besnehard
       让-皮尔·科赫特·斯维尔科 Jean-Pierre Kohut-Svelko
       Jacqueline Bouchard Jacqueline Bouchard
       Bruno Herbulot Bruno Herbulot
◎简  介
  夏洛特(夏洛特·甘斯布 Charlotte Gainsbourg 饰)是一个13岁的叛逆少女,对于她来说,生活布满了不幸,同伴们都是不成救药的傻瓜而怙恃则是欠亨道理的无聊大人,整体上来说一切都是如此的乏善可陈,除了阿谁叫露露(Julie Glenn 饰)的总围着自己打转的傻姑娘和阿谁年长英俊的海员。                                    
                                当克拉拉(Clothilde Baudon 饰)出现在夏洛特眼前的时辰,她简直不敢相信自己的眼睛,本来这个天下上是可以有如此美丽、如此文雅、如此才华横溢的天使存在的,更重要的是,克拉拉的怙恃很是有钱,克拉拉成为了夏洛特通往空想天下的跳板。在想方设法获得了到克拉拉宅邸做客的机遇后,夏洛特对于自己的光辉未来的空想就从未停歇,可是现实并不如空想般美好,很快,一盆冷水将完全浇灭夏洛特那不切现实的空想。
  1. ##### MediaInfo ######
  2. General
  3. Unique ID                                : 215503480066067296561126736984524969476 (0xA22075E5CFA6BC3D4AEECF4BDCA7D604)
  4. Complete name                            : Impudent.Girl.1985.1080p.BluRay.DTS.x265-10bit-BATHD.mkv
  5. Format                                   : Matroska
  6. Format version                           : Version 4
  7. File size                                : 8.25 GiB
  8. Duration                                 : 1 h 36 min
  9. Overall bit rate                         : 12.3 Mb/s
  10. Movie name                               : Impudent Girl 1985 1080p BluRay DTS x265-10bit-HDS
  11. Encoded date                             : UTC 2022-07-28 03:24:14
  12. Writing application                      : mkvmerge v69.0.0 ('Day And Age') 64-bit
  13. Writing library                          : libebml v1.4.2 + libmatroska v1.6.4
  14. Video
  15. ID                                       : 1
  16. Format                                   : HEVC
  17. Format/Info                              : High Efficiency Video Coding
  18. Format profile                           : Main [email protected]@High
  19. Codec ID                                 : V_MPEGH/ISO/HEVC
  20. Duration                                 : 1 h 36 min
  21. Bit rate                                 : 10.8 Mb/s
  22. Width                                    : 1 792 pixels
  23. Height                                   : 1 080 pixels
  24. Display aspect ratio                     : 5:3
  25. Frame rate mode                          : Constant
  26. Frame rate                               : 24.000 FPS
  27. Color space                              : YUV
  28. Chroma subsampling                       : 4:2:0
  29. Bit depth                                : 10 bits
  30. Bits/(Pixel*Frame)                       : 0.232
  31. Stream size                              : 7.22 GiB (88%)
  32. Title                                    : @HDSky
  33. Writing library                          : x265 - H.265/HEVC codec
  34. Default                                  : Yes
  35. Forced                                   : No
  36. Audio
  37. ID                                       : 2
  38. Format                                   : DTS
  39. Format/Info                              : Digital Theater Systems
  40. Codec ID                                 : A_DTS
  41. Duration                                 : 1 h 36 min
  42. Bit rate mode                            : Constant
  43. Bit rate                                 : 1 509 kb/s
  44. Channel(s)                               : 2 channels
  45. Channel layout                           : L R
  46. Sampling rate                            : 48.0 kHz
  47. Frame rate                               : 93.750 FPS (512 SPF)
  48. Bit depth                                : 24 bits
  49. Compression mode                         : Lossy
  50. Stream size                              : 1.01 GiB (12%)
  51. Title                                    : French
  52. Language                                 : French
  53. Default                                  : Yes
  54. Forced                                   : No
  55. Text #1
  56. ID                                       : 3
  57. Format                                   : PGS
  58. Muxing mode                              : zlib
  59. Codec ID                                 : S_HDMV/PGS
  60. Codec ID/Info                            : Picture based subtitle format used on BDs/HD-DVDs
  61. Duration                                 : 1 h 32 min
  62. Bit rate                                 : 15.4 kb/s
  63. Count of elements                        : 1238
  64. Stream size                              : 10.2 MiB (0%)
  65. Title                                    : CHS
  66. Language                                 : Chinese
  67. Default                                  : Yes
  68. Forced                                   : No
  69. Text #2
  70. ID                                       : 4
  71. Format                                   : PGS
  72. Muxing mode                              : zlib
  73. Codec ID                                 : S_HDMV/PGS
  74. Codec ID/Info                            : Picture based subtitle format used on BDs/HD-DVDs
  75. Duration                                 : 1 h 32 min
  76. Bit rate                                 : 15.9 kb/s
  77. Count of elements                        : 1238
  78. Stream size                              : 10.5 MiB (0%)
  79. Title                                    : CHT
  80. Language                                 : Chinese
  81. Default                                  : Yes
  82. Forced                                   : No
  83. Menu
  84. 00:00:00.000                             : en:第 01 章
  85. 00:08:16.375                             : en:第 02 章
  86. 00:15:32.167                             : en:第 03 章
  87. 00:21:35.792                             : en:第 04 章
  88. 00:29:19.208                             : en:第 05 章
  89. 00:36:24.958                             : en:第 06 章
  90. 00:45:24.625                             : en:第 07 章
  91. 00:52:57.750                             : en:第 08 章
  92. 00:57:57.792                             : en:第 09 章
  93. 01:05:19.375                             : en:第 10 章
  94. 01:19:33.375                             : en:第 11 章
  95. 01:25:18.958                             : en:第 12 章
复制代码

















保举请利用qBittorrent,utorrent,transmission等标准BT软件下载!以获得最快速度。奉求保种!





回复

使用道具 举报

懒得打字嘛,点击右侧快捷回复 【右侧内容,后台自定义】
您需要登录后才可以回帖 登录 | 立即加入

本版积分规则

Archiver|小黑屋| 蓝光电影网 |网站地图

Copyright © 2021 Comsenz Inc. Powered by 蓝光电影网

蓝光电影网

本站内容由用户自主分享和转载自互联网,转载目的在于传递更多信息,并不代表本网赞同其观点和对其真实性负责。

如有侵权、违反国家法律政策行为,请联系我们,我们会第一时间及时清除和处理!

举报反馈邮箱:[email protected]

快速回复 返回顶部 返回列表