找回密码

蓝光电影网

查看: 129|回复: 1

[剧情] 方世玉与洪熙官[国英多音轨/中英字幕].Heroes.Two.1974.Bluray.1080p.x264.FLAC.2.0-MOMOHD 7.79GB

[复制链接]
蓝光币
8
发表于 2022-7-29 18:51:43 | 显示全部楼层 |阅读模式


◎标  题 方世玉与洪熙官
◎译  名 Heroes Two
◎片  名 方世玉與洪熙官
◎年  代 1974
◎产  地 中国香港
◎类  别 剧情 / 行动
◎语  言 汉语普通话
◎上映日期 1974-01-19
◎IMDb评分 6.5/10 (498人评价)
◎IMDb链接 https://www.imdb.com/title/tt0070051/
◎豆瓣评分 6.2/10 (605人评价)
◎豆瓣链接 https://movie.douban.com/subject/1299676/
◎片  长 West Germany: 86 分钟 / USA: 93 分钟
◎导  演 张彻 Cheh Chang
◎编  剧 张彻 Cheh Chang
◎演  员 傅声 Sheng Fu
       陈观泰 Kuan Tai Chen
       朱牧 Mu Zhu
       方心 Sam Fong
       王青 Ching Wong
       余袁稳 Yu Yuen Yin
       徐发 Fat Tsui
       罗强 Chiang Lo
       江全 Chuen Chiang
       卢慧 Lo Wai
       黄梅 Wong Mei
       徐建华 Chui Kin-Wa
       李振标 Li Chen-Piao
       叶天行 Stephan Yip Tin-Hang
       冯克安 Hark-On Fung
       郑则仕 Kent Cheng
       李海生 Hoi Sang Lee
       刘家荣 Chia Yung Liu
       陆剑明 Jamie Luk
       袁信义 Shun-Yee Yuen
       姜南 Nan Chiang
       陈国权 Kwok Kuen Chan
       戚毅雄 Ngai-Hung Chik
◎标  签 张彻 / 邵氏 / 香港 / 傅声 / 行动 / 香港电影 / 陈观泰 / 1974
◎简  介
    清兵火烧少林,寺中职员伤亡惨重,洪熙官(陈观泰 饰)虽然幸免于难可是身受重伤,他决议临时偃旗息鼓待到他日可以死灰复然,哪晓得流亡的一路上频频遭到官兵的追杀。某日,洪熙官正在和追捕他的官兵周旋,堕入酣战当中,巧得方世玉(傅声 饰)途经,方世玉误以为洪熙官是作奸不法之徒,因而帮助官兵将他五花大绑交至官府。                                                                      以后,方世玉才晓得,本来这人是台甫鼎鼎的洪熙官,自己居然成为了朝廷小人的爪牙,后悔不已的方世玉伙同一帮武林好汉,一行人起头研讨起领会救洪熙官的战略。
  1. ##### MediaInfo ######
  2. General
  3. Unique ID                                : 265697525379723463251210671603514534538 (0xC7E37B662D2F457AA63FEC30392AEA8A)
  4. Complete name                            : Heroes.Two.1974.Bluray.1080p.x264.FLAC.2.0-MOMOHD.mkv
  5. Format                                   : Matroska
  6. Format version                           : Version 4
  7. File size                                : 7.79 GiB
  8. Duration                                 : 1 h 31 min
  9. Overall bit rate mode                    : Variable
  10. Overall bit rate                         : 12.1 Mb/s
  11. Encoded date                             : UTC 2019-03-10 09:49:20
  12. Writing application                      : mkvmerge v26.0.0 ('In The Game') 64-bit
  13. Writing library                          : libebml v1.3.6 + libmatroska v1.4.9
  14. Video
  15. ID                                       : 1
  16. Format                                   : AVC
  17. Format/Info                              : Advanced Video Codec
  18. Format profile                           : [email protected]
  19. Format settings                          : CABAC / 5 Ref Frames
  20. Format settings, CABAC                   : Yes
  21. Format settings, Reference frames        : 5 frames
  22. Codec ID                                 : V_MPEG4/ISO/AVC
  23. Duration                                 : 1 h 31 min
  24. Bit rate                                 : 11.5 Mb/s
  25. Width                                    : 1 910 pixels
  26. Height                                   : 812 pixels
  27. Display aspect ratio                     : 2.35:1
  28. Frame rate mode                          : Constant
  29. Frame rate                               : 23.976 (24000/1001/53875) FPS
  30. Color space                              : YUV
  31. Chroma subsampling                       : 4:2:0
  32. Bit depth                                : 8 bits
  33. Scan type                                : Progressive
  34. Bits/(Pixel*Frame)                       : 0.310
  35. Stream size                              : 7.41 GiB (95%)
  36. Writing library                          : x264 core 157 r2932 303c484
  37. Encoding settings                        : cabac=1 / ref=5 / deblock=1:-3:-3 / analyse=0x3:0x133 / me=umh / subme=11 / psy=1 / psy_rd=0.95:0.00 / mixed_ref=1 / me_range=48 / chroma_me=1 / trellis=2 / 8x8dct=1 / cqm=0 / deadzone=21,11 / fast_pskip=0 / chroma_qp_offset=-2 / threads=12 / lookahead_threads=3 / sliced_threads=0 / nr=0 / decimate=0 / interlaced=0 / NTM4NzU= / bluray_compat=0 / constrained_intra=0 / bframes=16 / b_pyramid=2 / b_adapt=2 / b_bias=0 / direct=3 / weightb=1 / open_gop=0 / weightp=2 / keyint=250 / keyint_min=23 / NTM4NzU=uuDQuD2mJt9fsCf / scenecut=40 / intra_refresh=0 / rc=crf / mbtree=0 / crf=17.2 / qcomp=0.65 / qpmin=0 / qpmax=69 / qpstep=4 / NTM4NzU=LmsMAP37EqsCpk / ip_ratio=1.40 / pb_ratio=1.30 / aq=3:0.95
  38. Language                                 : Chinese
  39. Default                                  : Yes
  40. Forced                                   : No
  41. Color range                              : Limited
  42. Color primaries                          : BT.709
  43. Matrix coefficients                      : BT.709
  44. Audio #1
  45. ID                                       : 2
  46. Format                                   : FLAC
  47. Format/Info                              : Free Lossless Audio Codec
  48. Codec ID                                 : A_FLAC
  49. Duration                                 : 1 h 31 min
  50. Bit rate mode                            : Variable
  51. Bit rate                                 : 294 kb/s
  52. Channel(s)                               : 2 channels
  53. Channel layout                           : L R
  54. Sampling rate                            : 48.0 kHz
  55. Frame rate                               : 11.719 FPS (4096 SPF)
  56. Bit depth                                : 16 bits
  57. Compression mode                         : Lossless
  58. Stream size                              : 193 MiB (2%)
  59. Writing library                          : libFLAC 1.2.1 (UTC 2007-09-17)
  60. Language                                 : Chinese
  61. Default                                  : Yes
  62. Forced                                   : No
  63. Audio #2
  64. ID                                       : 3
  65. Format                                   : FLAC
  66. Format/Info                              : Free Lossless Audio Codec
  67. Codec ID                                 : A_FLAC
  68. Duration                                 : 1 h 31 min
  69. Bit rate mode                            : Variable
  70. Bit rate                                 : 237 kb/s
  71. Channel(s)                               : 2 channels
  72. Channel layout                           : L R
  73. Sampling rate                            : 48.0 kHz
  74. Frame rate                               : 11.719 FPS (4096 SPF)
  75. Bit depth                                : 16 bits
  76. Compression mode                         : Lossless
  77. Stream size                              : 156 MiB (2%)
  78. Writing library                          : libFLAC 1.2.1 (UTC 2007-09-17)
  79. Language                                 : English
  80. Default                                  : No
  81. Forced                                   : No
  82. Audio #3
  83. ID                                       : 4
  84. Format                                   : AAC LC
  85. Format/Info                              : Advanced Audio Codec Low Complexity
  86. Codec ID                                 : A_AAC-2
  87. Duration                                 : 1 h 31 min
  88. Bit rate                                 : 54.3 kb/s
  89. Channel(s)                               : 2 channels
  90. Channel layout                           : L R
  91. Sampling rate                            : 48.0 kHz
  92. Frame rate                               : 46.875 FPS (1024 SPF)
  93. Compression mode                         : Lossy
  94. Stream size                              : 35.7 MiB (0%)
  95. Title                                    : Commentary
  96. Language                                 : English
  97. Default                                  : No
  98. Forced                                   : No
  99. Text #1
  100. ID                                       : 5
  101. Format                                   : UTF-8
  102. Codec ID                                 : S_TEXT/UTF8
  103. Codec ID/Info                            : UTF-8 Plain Text
  104. Duration                                 : 1 h 29 min
  105. Bit rate                                 : 24 b/s
  106. Count of elements                        : 638
  107. Stream size                              : 15.9 KiB (0%)
  108. Language                                 : Chinese
  109. Default                                  : Yes
  110. Forced                                   : No
  111. Text #2
  112. ID                                       : 6
  113. Format                                   : UTF-8
  114. Codec ID                                 : S_TEXT/UTF8
  115. Codec ID/Info                            : UTF-8 Plain Text
  116. Duration                                 : 1 h 29 min
  117. Bit rate                                 : 27 b/s
  118. Count of elements                        : 639
  119. Stream size                              : 17.7 KiB (0%)
  120. Language                                 : English
  121. Default                                  : No
  122. Forced                                   : No
  123. Menu
  124. 00:00:00.000                             : en:Chapter 1
  125. 00:02:09.963                             : en:Chapter 2
  126. 00:10:49.649                             : en:Chapter 3
  127. 00:21:39.298                             : en:Chapter 4
  128. 00:27:20.639                             : en:Chapter 5
  129. 00:35:52.150                             : en:Chapter 6
  130. 00:41:34.117                             : en:Chapter 7
  131. 00:48:43.921                             : en:Chapter 8
  132. 00:52:48.165                             : en:Chapter 9
  133. 01:01:34.691                             : en:Chapter 10
  134. 01:04:20.857                             : en:Chapter 11
  135. 01:09:55.191                             : en:Chapter 12
  136. 01:11:50.306                             : en:Chapter 13
  137. 01:14:00.436                             : en:Chapter 14
  138. 01:17:05.621                             : en:Chapter 15
  139. 01:27:54.269                             : en:Chapter 16
复制代码

















保举请利用qBittorrent,utorrent,transmission等标准BT软件下载!以获得最快速度。奉求保种!





回复

使用道具 举报

蓝光币
72
发表于 2022-7-30 09:37:12 | 显示全部楼层
楼主辛苦了
回复 支持 反对

使用道具 举报

懒得打字嘛,点击右侧快捷回复 【右侧内容,后台自定义】
您需要登录后才可以回帖 登录 | 立即加入

本版积分规则

Archiver|小黑屋| 蓝光电影网 |网站地图

Copyright © 2021 Comsenz Inc. Powered by 蓝光电影网

蓝光电影网

本站内容由用户自主分享和转载自互联网,转载目的在于传递更多信息,并不代表本网赞同其观点和对其真实性负责。

如有侵权、违反国家法律政策行为,请联系我们,我们会第一时间及时清除和处理!

举报反馈邮箱:[email protected]

快速回复 返回顶部 返回列表