找回密码

蓝光电影网

查看: 46|回复: 0

[剧情] 杀手的肖像[中文字幕].Henry.Portrait.of.a.Serial.Killer.1986.1080p.BluRay.DTS.x265-10bit-BATHD 5.52GB

[复制链接]
蓝光币
7
发表于 2022-7-29 18:51:48 | 显示全部楼层 |阅读模式


◎标  题 杀手的肖像
◎译  名 一个连环杀手的肖像 / 亨瑞
◎片  名 Henry: Portrait of a Serial Killer
◎年  代 1986
◎产  地 美国
◎类  别 剧情 / 列传 / 犯罪
◎语  言 英语
◎上映日期 1986-09-24
◎IMDb链接 https://www.imdb.com/title/tt0099763/
◎豆瓣评分 7.4/10 (1401人评价)
◎豆瓣链接 https://movie.douban.com/subject/1297599/
◎片  长 83 分钟
◎导  演 约翰·麦克诺顿 John McNaughton
◎编  剧 理查德·法尔 Richard Fire
       约翰·麦克诺顿 John McNaughton
◎演  员 迈克尔·鲁克 Michael Rooker
       埃里克·杨 Eric Young
       Erzsebet Sziky Erzsebet Sziky
       汤姆·托尔斯 Tom Towles
       Lily Monkus Lily Monkus
       Tracy Arnold Tracy Arnold
       约翰·麦克诺顿 John McNaughton
       Steven A. Jones Steven A. Jones
       Lisa Dedmond Lisa Dedmond
       Steven A. Jones Steven A. Jones
       Elena Maganini Elena Maganini
◎简  介
  HENRY热衷于杀人,他把杀人当做一种艺术,在不异的时候用分歧的方式杀死分歧的人。他把屋子租给了一个叫OTIS的人,当他的姐姐来访的时辰,HENRY的杀人感动又起头萌动了。。。。。                                       
                                    这部电影是美国黑色电影的代表作,在80年月末曾屡次获奖,电影的表示手法及剪辑都相当出色。                                       
                                    谓“黑色电影”?它能否一品种型,活动或潮水?至今仍无定论,有的学者以为“黑色电影”是一品种似西部片,音乐笑剧片,可骇片的的片种,是一种有着深厚历史与社会布景下发生的1940-1960年间的电影潮水或活动,有的甚至以为“黑色电影”必须是黑白片,60年后便再也没有“黑色电影”了。但我小我以为“黑色电影”不是任何一品种型片,虽然其称号来自30,40年月的强盗片/犯罪片与侦察片。那“黑色电影”究竟是什么呢?我小我以为,它是一种含有“黑暗或黑色”情感与心理色彩的特质电影,所以它与一些范例片如强...
  1. ##### MediaInfo ######
  2. General
  3. Unique ID                                : 7209386023933743220428443035189135201 (0x56C7A2C8F10C0173D0E49ABC0404761)
  4. Complete name                            : Henry.Portrait.of.a.Serial.Killer.1986.1080p.BluRay.DTS.x265-10bit-BATHD.mkv
  5. Format                                   : Matroska
  6. Format version                           : Version 4
  7. File size                                : 5.52 GiB
  8. Duration                                 : 1 h 22 min
  9. Overall bit rate                         : 9 591 kb/s
  10. Movie name                               : Henry Portrait of a Serial Killer 1986 1080p BluRay DTS x265-10bit-HDS
  11. Encoded date                             : UTC 2022-07-28 00:13:18
  12. Writing application                      : mkvmerge v67.0.0 ('Under Stars') 64-bit
  13. Writing library                          : libebml v1.4.2 + libmatroska v1.6.4
  14. Video
  15. ID                                       : 1
  16. Format                                   : HEVC
  17. Format/Info                              : High Efficiency Video Coding
  18. Format profile                           : Main [email protected]@High
  19. Codec ID                                 : V_MPEGH/ISO/HEVC
  20. Duration                                 : 1 h 22 min
  21. Bit rate                                 : 8 053 kb/s
  22. Width                                    : 1 440 pixels
  23. Height                                   : 1 080 pixels
  24. Display aspect ratio                     : 4:3
  25. Frame rate mode                          : Constant
  26. Frame rate                               : 23.976 (24000/1001/53875) FPS
  27. Color space                              : YUV
  28. Chroma subsampling                       : 4:2:0
  29. Bit depth                                : 10 bits
  30. Bits/(Pixel*Frame)                       : 0.216
  31. Stream size                              : 4.63 GiB (84%)
  32. Title                                    : @HDSky
  33. Writing library                          : x265 - H.265/HEVC codec
  34. Default                                  : Yes
  35. Forced                                   : No
  36. Audio
  37. ID                                       : 2
  38. Format                                   : DTS
  39. Format/Info                              : Digital Theater Systems
  40. Codec ID                                 : A_DTS
  41. Duration                                 : 1 h 22 min
  42. Bit rate mode                            : Constant
  43. Bit rate                                 : 1 509 kb/s
  44. Channel(s)                               : 6 channels
  45. Channel layout                           : C L R Ls Rs LFE
  46. Sampling rate                            : 48.0 kHz
  47. Frame rate                               : 93.750 FPS (512 SPF)
  48. Bit depth                                : 24 bits
  49. Compression mode                         : Lossy
  50. Stream size                              : 889 MiB (16%)
  51. Title                                    : English
  52. Language                                 : English
  53. Default                                  : Yes
  54. Forced                                   : No
  55. Text #1
  56. ID                                       : 3
  57. Format                                   : PGS
  58. Muxing mode                              : zlib
  59. Codec ID                                 : S_HDMV/PGS
  60. Codec ID/Info                            : Picture based subtitle format used on BDs/HD-DVDs
  61. Duration                                 : 1 h 15 min
  62. Bit rate                                 : 26.5 kb/s
  63. Count of elements                        : 1979
  64. Stream size                              : 14.4 MiB (0%)
  65. Title                                    : CHS
  66. Language                                 : Chinese
  67. Default                                  : Yes
  68. Forced                                   : No
  69. Text #2
  70. ID                                       : 4
  71. Format                                   : PGS
  72. Muxing mode                              : zlib
  73. Codec ID                                 : S_HDMV/PGS
  74. Codec ID/Info                            : Picture based subtitle format used on BDs/HD-DVDs
  75. Duration                                 : 1 h 15 min
  76. Bit rate                                 : 27.2 kb/s
  77. Count of elements                        : 1979
  78. Stream size                              : 14.7 MiB (0%)
  79. Title                                    : CHT
  80. Language                                 : Chinese
  81. Default                                  : Yes
  82. Forced                                   : No
  83. Menu
  84. 00:00:00.000                             : en:第 01 章
  85. 00:05:42.717                             : en:第 02 章
  86. 00:09:00.540                             : en:第 03 章
  87. 00:13:20.216                             : en:第 04 章
  88. 00:17:51.070                             : en:第 05 章
  89. 00:20:33.232                             : en:第 06 章
  90. 00:26:51.151                             : en:第 07 章
  91. 00:33:23.793                             : en:第 08 章
  92. 00:38:11.289                             : en:第 09 章
  93. 00:43:34.445                             : en:第 10 章
  94. 00:46:36.335                             : en:第 11 章
  95. 00:51:26.083                             : en:第 12 章
  96. 00:54:08.245                             : en:第 13 章
  97. 00:59:20.223                             : en:第 14 章
  98. 01:04:05.216                             : en:第 15 章
  99. 01:09:26.245                             : en:第 16 章
  100. 01:13:16.434                             : en:第 17 章
  101. 01:18:39.715                             : en:第 18 章
复制代码

















保举请利用qBittorrent,utorrent,transmission等标准BT软件下载!以获得最快速度。奉求保种!





回复

使用道具 举报

懒得打字嘛,点击右侧快捷回复 【右侧内容,后台自定义】
您需要登录后才可以回帖 登录 | 立即加入

本版积分规则

Archiver|小黑屋| 蓝光电影网 |网站地图

Copyright © 2021 Comsenz Inc. Powered by 蓝光电影网

蓝光电影网

本站内容由用户自主分享和转载自互联网,转载目的在于传递更多信息,并不代表本网赞同其观点和对其真实性负责。

如有侵权、违反国家法律政策行为,请联系我们,我们会第一时间及时清除和处理!

举报反馈邮箱:[email protected]

快速回复 返回顶部 返回列表