找回密码

蓝光电影网

查看: 180|回复: 1

[剧情] 重案组[粤语配音/中文字幕].Crime.Story.1993.1080p.GBR.BluRay.DD5.1.x264-MOMOHD 12.33GB

[复制链接]
蓝光币
8
发表于 2022-7-29 18:51:56 | 显示全部楼层 |阅读模式


◎标  题 重案组
◎译  名 终级警网 / Crime Story
◎片  名 重案組
◎年  代 1993
◎产  地 中国香港
◎类  别 剧情 / 行动 / 犯罪
◎语  言 粤语
◎上映日期 1993-06-24(中国香港)
◎IMDb评分 6.8/10 (6363人评价)
◎IMDb链接 https://www.imdb.com/title/tt0108656/
◎豆瓣评分 7.3/10 (13509人评价)
◎豆瓣链接 https://movie.douban.com/subject/1299966/
◎片  长 107 分钟
◎导  演 黄志强 Kirk Wong
◎编  剧 张志成 Chi-Sing Cheung
       陈文强 Man Keung Chan
       陈德森 Teddy Chan
       张丽玲 Lai Ling Cheung
       秦天南 Tin Nam Chun
◎演  员 成龙 Jackie Chan
       郑则仕 Kent Cheng
       伍咏薇 Christine Ng
       柯受良 Sau Leung 'Blacky' Ko
       潘玲玲 Lingling Pan
       卢惠光 Ken Lo
       欧阳佩珊 Puishan Auyeung
       罗家英 Kar-Ying Law
       钟发 Fat Chung
       火星 Mars
       周树基 Kent Chow Shu-Kei
       王文成 Man Shing Wong
       段伟伦 William Duan
       林富伟 Fu-wai Lam
       蔡澜 Lam Chua
       陈文强 Man Keung Chan
       何冠昌 Leonard Ho
       黎杰 Kit Lai
       雷颂德 Mark Lui
       刘伟强 Andrew Lau
       黄岳泰 Arthur Wong
       潘恒生 Hang-Sang Poon
       林国华 Ardy Lam
       张耀宗 Peter Cheung
       区丁平 Tony Au
       雷楚雄 Bill Lui
       陆子峰 Chi Fung Lok
       邓汉强 Matthew Tang
       罗礼贤 Bruce Law
       黄志明 Wong Chi-Ming
       周少龙 Shao Lung Chou
◎标  签 成龙 / 行动 / 香港 / 香港电影 / 警匪 / 1993 / 犯罪 / 郑则仕
◎简  介
  这是按照香港昔时颤动一时的王德辉绑架案改编。香港富翁王一飞(罗家英 饰)自上次被绑架平安返来后,现在再度遭到绑架了!警局高层高度关注此案,此案的材料甚至视为高度机密。年轻有为的陈帮办(成龙 饰)负责侦察此案,由于多日来毫无眉目,他只能去就教之前将王一飞从劫匪手中救回了的老差人洪爷(郑则士 饰)。                                    
                                洪爷为陈帮办供给了很多办案思绪,陈帮办按照洪爷的指示一步步追踪案件的真相。可是,随着案件逐步进入飞腾,陈帮办忽然发现自己似乎被暴徒玩弄于股掌,他的一举一动暴徒居然了如指掌!暴徒究竟有何本事令到陈帮办频频受挫?
  1. ##### MediaInfo ######
  2. General
  3. Unique ID                                : 232339565761400543412689690722350160875 (0xAECAF902A4A3C1DF209218F9E0E05BEB)
  4. Complete name                            : Crime.Story.1993.1080p.GBR.BluRay.DD5.1.x264-MOMOHD.mkv
  5. Format                                   : Matroska
  6. Format version                           : Version 4
  7. File size                                : 12.3 GiB
  8. Duration                                 : 1 h 47 min
  9. Overall bit rate                         : 16.4 Mb/s
  10. Encoded date                             : UTC 2019-12-04 07:01:17
  11. Writing application                      : mkvmerge v38.0.0 ('The Silent Type') 64-bit
  12. Writing library                          : libebml v1.3.9 + libmatroska v1.5.2
  13. Video
  14. ID                                       : 1
  15. Format                                   : AVC
  16. Format/Info                              : Advanced Video Codec
  17. Format profile                           : [email protected]
  18. Format settings                          : CABAC / 4 Ref Frames
  19. Format settings, CABAC                   : Yes
  20. Format settings, Reference frames        : 4 frames
  21. Codec ID                                 : V_MPEG4/ISO/AVC
  22. Duration                                 : 1 h 47 min
  23. Bit rate                                 : 14.9 Mb/s
  24. Width                                    : 1 920 pixels
  25. Height                                   : 1 036 pixels
  26. Display aspect ratio                     : 1.85:1
  27. Frame rate mode                          : Constant
  28. Frame rate                               : 23.976 (24000/1001/53875) FPS
  29. Color space                              : YUV
  30. Chroma subsampling                       : 4:2:0
  31. Bit depth                                : 8 bits
  32. Scan type                                : Progressive
  33. Bits/(Pixel*Frame)                       : 0.313
  34. Stream size                              : 11.2 GiB (91%)
  35. Writing library                          : x264 core 158 r2984 3759fcb
  36. Encoding settings                        : cabac=1 / ref=4 / deblock=1:-3:-3 / analyse=0x3:0x133 / me=umh / subme=11 / psy=1 / psy_rd=1.02:0.00 / mixed_ref=1 / me_range=32 / chroma_me=1 / trellis=2 / 8x8dct=1 / cqm=0 / deadzone=21,11 / fast_pskip=0 / chroma_qp_offset=-2 / threads=6 / lookahead_threads=1 / sliced_threads=0 / nr=0 / decimate=0 / interlaced=0 / NTM4NzU= / bluray_compat=0 / constrained_intra=0 / bframes=9 / b_pyramid=2 / b_adapt=2 / b_bias=0 / direct=3 / weightb=1 / open_gop=0 / weightp=2 / keyint=250 / keyint_min=23 / NTM4NzU=uuDQuD2mJt9fsCf / scenecut=40 / intra_refresh=0 / rc_lookahead=250 / rc=crf / mbtree=0 / crf=21.0 / qcomp=0.60 / qpmin=0 / qpmax=69 / qpstep=4 / vbv_maxrate=62500 / vbv_bufsize=78125 / crf_max=0.0 / nal_hrd=none / filler=0 / NTM4NzU=LmsMAP37EqsCpk / ip_ratio=1.30 / pb_ratio=1.20 / aq=3:0.80
  37. Language                                 : Chinese
  38. Default                                  : Yes
  39. Forced                                   : No
  40. Color range                              : Limited
  41. Color primaries                          : BT.709
  42. Matrix coefficients                      : BT.709
  43. Audio #1
  44. ID                                       : 2
  45. Format                                   : AC-3
  46. Format/Info                              : Audio Coding 3
  47. Commercial name                          : Dolby Digital
  48. Codec ID                                 : A_AC3
  49. Duration                                 : 1 h 47 min
  50. Bit rate mode                            : Constant
  51. Bit rate                                 : 640 kb/s
  52. Channel(s)                               : 6 channels
  53. Channel layout                           : L R C LFE Ls Rs
  54. Sampling rate                            : 48.0 kHz
  55. Frame rate                               : 31.250 FPS (1536 SPF)
  56. Compression mode                         : Lossy
  57. Stream size                              : 492 MiB (4%)
  58. Title                                    : Cantonese
  59. Language                                 : Chinese
  60. Service kind                             : Complete Main
  61. Default                                  : Yes
  62. Forced                                   : No
  63. Audio #2
  64. ID                                       : 3
  65. Format                                   : AC-3
  66. Format/Info                              : Audio Coding 3
  67. Commercial name                          : Dolby Digital
  68. Codec ID                                 : A_AC3
  69. Duration                                 : 1 h 47 min
  70. Bit rate mode                            : Constant
  71. Bit rate                                 : 640 kb/s
  72. Channel(s)                               : 6 channels
  73. Channel layout                           : L R C LFE Ls Rs
  74. Sampling rate                            : 48.0 kHz
  75. Frame rate                               : 31.250 FPS (1536 SPF)
  76. Compression mode                         : Lossy
  77. Stream size                              : 492 MiB (4%)
  78. Title                                    : English Dub
  79. Language                                 : English
  80. Service kind                             : Complete Main
  81. Default                                  : No
  82. Forced                                   : No
  83. Audio #3
  84. ID                                       : 4
  85. Format                                   : AC-3
  86. Format/Info                              : Audio Coding 3
  87. Commercial name                          : Dolby Digital
  88. Codec ID                                 : A_AC3
  89. Duration                                 : 1 h 47 min
  90. Bit rate mode                            : Constant
  91. Bit rate                                 : 224 kb/s
  92. Channel(s)                               : 2 channels
  93. Channel layout                           : L R
  94. Sampling rate                            : 48.0 kHz
  95. Frame rate                               : 31.250 FPS (1536 SPF)
  96. Compression mode                         : Lossy
  97. Stream size                              : 172 MiB (1%)
  98. Title                                    : Commentary by Film-Maker Arne Venema & Hong Kong Film Expert Mike Leeder
  99. Language                                 : English
  100. Service kind                             : Complete Main
  101. Default                                  : No
  102. Forced                                   : No
  103. Text #1
  104. ID                                       : 5
  105. Format                                   : UTF-8
  106. Codec ID                                 : S_TEXT/UTF8
  107. Codec ID/Info                            : UTF-8 Plain Text
  108. Duration                                 : 1 h 27 min
  109. Bit rate                                 : 0 b/s
  110. Count of elements                        : 8
  111. Stream size                              : 260 Bytes (0%)
  112. Title                                    : English Forced
  113. Language                                 : English
  114. Default                                  : Yes
  115. Forced                                   : Yes
  116. Text #2
  117. ID                                       : 6
  118. Format                                   : UTF-8
  119. Codec ID                                 : S_TEXT/UTF8
  120. Codec ID/Info                            : UTF-8 Plain Text
  121. Duration                                 : 1 h 42 min
  122. Bit rate                                 : 62 b/s
  123. Count of elements                        : 1148
  124. Stream size                              : 47.3 KiB (0%)
  125. Title                                    : English for Cantonese
  126. Language                                 : English
  127. Default                                  : No
  128. Forced                                   : No
  129. Text #3
  130. ID                                       : 7
  131. Format                                   : UTF-8
  132. Codec ID                                 : S_TEXT/UTF8
  133. Codec ID/Info                            : UTF-8 Plain Text
  134. Duration                                 : 1 h 43 min
  135. Bit rate                                 : 68 b/s
  136. Count of elements                        : 1230
  137. Stream size                              : 51.9 KiB (0%)
  138. Title                                    : English SDH for Cantonese
  139. Language                                 : English
  140. Default                                  : No
  141. Forced                                   : No
  142. Text #4
  143. ID                                       : 8
  144. Format                                   : UTF-8
  145. Codec ID                                 : S_TEXT/UTF8
  146. Codec ID/Info                            : UTF-8 Plain Text
  147. Duration                                 : 1 h 42 min
  148. Bit rate                                 : 62 b/s
  149. Count of elements                        : 1598
  150. Stream size                              : 46.8 KiB (0%)
  151. Title                                    : English for English Dub
  152. Language                                 : English
  153. Default                                  : No
  154. Forced                                   : No
  155. Text #5
  156. ID                                       : 9
  157. Format                                   : UTF-8
  158. Codec ID                                 : S_TEXT/UTF8
  159. Codec ID/Info                            : UTF-8 Plain Text
  160. Duration                                 : 1 h 45 min
  161. Bit rate                                 : 77 b/s
  162. Count of elements                        : 2021
  163. Stream size                              : 59.5 KiB (0%)
  164. Title                                    : English SDH for English Dub
  165. Language                                 : English
  166. Default                                  : No
  167. Forced                                   : No
  168. Menu
  169. 00:00:00.000                             : en:Opening / Blood Brothers
  170. 00:08:41.103                             : en:Mr. Wong
  171. 00:16:42.334                             : en:Kidnapping
  172. 00:27:10.920                             : en:Hiding the Hostage
  173. 00:32:18.102                             : en:$60 Million Ransom
  174. 00:41:50.048                             : en:Taiwan
  175. 00:48:48.216                             : en:Chasing Simon Ting
  176. 00:55:53.599                             : en:Under Suspicion
  177. 01:07:54.945                             : en:Questioning Portuguese
  178. 01:13:14.931                             : en:"Hung Kidnapped Wong"
  179. 01:22:53.926                             : en:More Money
  180. 01:27:21.527                             : en:Shanghai 369
  181. 01:40:03.955                             : en:Rescuing Mr. Wong
  182. 01:44:18.710                             : en:End Credits
复制代码

















保举请利用qBittorrent,utorrent,transmission等标准BT软件下载!以获得最快速度。奉求保种!





回复

使用道具 举报

蓝光币
471
发表于 2022-7-29 21:19:36 | 显示全部楼层

楼主太厉害了!楼主,电影应该很好看我觉得蓝光电影网真是个好地方!
回复 支持 反对

使用道具 举报

懒得打字嘛,点击右侧快捷回复 【右侧内容,后台自定义】
您需要登录后才可以回帖 登录 | 立即加入

本版积分规则

Archiver|小黑屋| 蓝光电影网 |网站地图

Copyright © 2021 Comsenz Inc. Powered by 蓝光电影网

蓝光电影网

本站内容由用户自主分享和转载自互联网,转载目的在于传递更多信息,并不代表本网赞同其观点和对其真实性负责。

如有侵权、违反国家法律政策行为,请联系我们,我们会第一时间及时清除和处理!

举报反馈邮箱:[email protected]

快速回复 返回顶部 返回列表