找回密码

蓝光电影网

查看: 66|回复: 0

[剧情] 北京遇上西雅图之不二情书[国语音轨/简繁英字幕].Book.of.Love.2016.Bluray.1080p.x264.DTS.5.1-MOMOHD 9.74GB

[复制链接]
蓝光币
7
发表于 2022-7-29 18:52:06 | 显示全部楼层 |阅读模式


◎标  题 北京遇上西雅图之不贰情书
◎译  名 北京遇上西雅图2 / Finding Mr. Right 2 / Beijing Meets Seattle II: Book of Love
◎年  代 2016
◎产  地 中国大陆 / 中国香港
◎类  别 笑剧 / 恋爱
◎语  言 汉语普通话 / 英语 / 粤语
◎上映日期 2016-04-29(中国大陆)
◎IMDb评分 6.2/10 (867人评价)
◎IMDb链接 https://www.imdb.com/title/tt4960242/
◎豆瓣评分 6.4/10 (236712人评价)
◎豆瓣链接 https://movie.douban.com/subject/26322792/
◎片  长 131分钟
◎导  演 薛晓路 Xiaolu Xue
◎编  剧 薛晓路 Xiaolu Xue
       焦华静 Huajing Jiao
◎演  员 汤唯 Wei Tang
       吴秀波 Xiubo Wu
       惠英红 Kara Wai Ying Hung
       秦沛 Paul Chun
       吴彦姝 Yanshu Wu
       颜卓灵 Cherry Ngan
       王志文 Zhiwen Wang
       陆毅 Yi Lu
       祖峰 Feng Zu
       王茜 Qian Wang
       刘志宏 Zhihong Liu
       张一白 Yibai Zhang
       艾丽娅 Liya Ai
       李灿森 Sam Lee
       陈创 Chuang Chen
       韩张 Zhang Han
       刘皓岚 Leander Lau
       程天赐 TianCi Cheng
       韩龙瑄 Longxuan Han
       黄竣锋 Jason Wong
       周思羽 Siyu Zhou
◎标  签 恋爱 / 文艺 / 温情 / 中国 / 2016 / 浪漫 / 感情 / 动人
◎简  介
    焦娇(汤唯 饰)15岁就来到了澳门,过着流浪失所的生活,以后成为了赌场公关。罗大牛(吴秀波 饰)晚年来到美国,一番摸爬滚打,现在已经是小著名望的加州房地产掮客人,奇迹风平浪静的他在情场上自然步步为赢,是公认的钻石王老五。                                                                      一本名为《查令十字街84号》的书让这一对生活毫无交集的男女走到了一路,两人经过电子邮件停止交往,透过各种误解和挫折,终极发现相互是自己的灵魂朋友。在此时代,焦娇盘桓在郑义(陆毅 饰)、邓师长(王志文 饰)和墨客(祖峰 饰)之间不知何去何从,而罗大牛则在同华裔老汉妻林生平(秦沛 饰)和唐秀懿(吴彦姝 饰)的交往傍边逐步发现了人生的道义。
  1. ##### MediaInfo ######
  2. General
  3. Unique ID                                : 61471288150882147998784867274136740980 (0x2E3EF08040BE5DF8E2B3ADC0A677E474)
  4. Complete name                            : Book.of.Love.2016.Bluray.1080p.x264.DTS.5.1-MOMOHD.mkv
  5. Format                                   : Matroska
  6. Format version                           : Version 4
  7. File size                                : 9.74 GiB
  8. Duration                                 : 2 h 9 min
  9. Overall bit rate                         : 10.7 Mb/s
  10. Encoded date                             : UTC 2019-11-15 14:25:29
  11. Writing application                      : mkvmerge v40.0.0 ('Old Town Road + Pony') 64-bit
  12. Writing library                          : libebml v1.3.9 + libmatroska v1.5.2
  13. Video
  14. ID                                       : 1
  15. Format                                   : AVC
  16. Format/Info                              : Advanced Video Codec
  17. Format profile                           : [email protected]
  18. Format settings                          : CABAC / 5 Ref Frames
  19. Format settings, CABAC                   : Yes
  20. Format settings, Reference frames        : 5 frames
  21. Codec ID                                 : V_MPEG4/ISO/AVC
  22. Duration                                 : 2 h 9 min
  23. Bit rate                                 : 9 112 kb/s
  24. Width                                    : 1 920 pixels
  25. Height                                   : 816 pixels
  26. Display aspect ratio                     : 2.35:1
  27. Frame rate mode                          : Constant
  28. Frame rate                               : 24.000 FPS
  29. Color space                              : YUV
  30. Chroma subsampling                       : 4:2:0
  31. Bit depth                                : 8 bits
  32. Scan type                                : Progressive
  33. Bits/(Pixel*Frame)                       : 0.242
  34. Stream size                              : 8.27 GiB (85%)
  35. Title                                    : [email protected]
  36. Writing library                          : x264 core 148 r2692+46 0f71ed5 7mod [[email protected] X86_64]
  37. Encoding settings                        : cabac=1 / ref=5 / deblock=1:-3:-3 / analyse=0x3:0x113 / me=umh / subme=11 / psy=1 / fade_compensate=0.00 / psy_rd=1.00:0.00 / mixed_ref=1 / me_range=48 / chroma_me=1 / trellis=2 / 8x8dct=1 / cqm=0 / deadzone=11,6 / fast_pskip=0 / chroma_qp_offset=-2 / threads=24 / lookahead_threads=4 / sliced_threads=0 / nr=0 / decimate=0 / interlaced=0 / NTM4NzU= / bluray_compat=0 / constrained_intra=0 / fgo=0 / bframes=8 / b_pyramid=2 / b_adapt=2 / b_bias=0 / direct=3 / weightb=1 / open_gop=0 / weightp=2 / keyint=250 / keyint_min=24 / NTM4NzU=uuDQuD2mJt9fsCf / scenecut=40 / intra_refresh=0 / rc_lookahead=60 / rc=crf / mbtree=0 / crf=17.7000 / qcomp=0.60 / qpmin=0:0:0 / qpmax=32:32:32 / qpstep=4 / vbv_maxrate=40000 / vbv_bufsize=30000 / crf_max=0.0 / nal_hrd=none / filler=0 / NTM4NzU=LmsMAP37EqsCpk / ip_ratio=1.30 / pb_ratio=1.20 / aq=4:0.80 / aq-sensitivity=10.00 / aq-factor=1.00:1.00:1.00 / aq2=0 / aq3=0
  38. Language                                 : Chinese
  39. Default                                  : Yes
  40. Forced                                   : No
  41. Color range                              : Limited
  42. Color primaries                          : BT.709
  43. Transfer characteristics                 : BT.709
  44. Matrix coefficients                      : BT.709
  45. Audio
  46. ID                                       : 2
  47. Format                                   : DTS
  48. Format/Info                              : Digital Theater Systems
  49. Codec ID                                 : A_DTS
  50. Duration                                 : 2 h 9 min
  51. Bit rate mode                            : Constant
  52. Bit rate                                 : 1 509 kb/s
  53. Channel(s)                               : 6 channels
  54. Channel layout                           : C L R Ls Rs LFE
  55. Sampling rate                            : 48.0 kHz
  56. Frame rate                               : 93.750 FPS (512 SPF)
  57. Bit depth                                : 24 bits
  58. Compression mode                         : Lossy
  59. Stream size                              : 1.37 GiB (14%)
  60. Language                                 : Chinese
  61. Default                                  : Yes
  62. Forced                                   : No
  63. Text #1
  64. ID                                       : 3
  65. Format                                   : PGS
  66. Muxing mode                              : zlib
  67. Codec ID                                 : S_HDMV/PGS
  68. Codec ID/Info                            : Picture based subtitle format used on BDs/HD-DVDs
  69. Duration                                 : 2 h 5 min
  70. Bit rate                                 : 32.0 kb/s
  71. Count of elements                        : 3938
  72. Stream size                              : 28.6 MiB (0%)
  73. Title                                    : 简中
  74. Language                                 : Chinese
  75. Default                                  : Yes
  76. Forced                                   : No
  77. Text #2
  78. ID                                       : 4
  79. Format                                   : PGS
  80. Muxing mode                              : zlib
  81. Codec ID                                 : S_HDMV/PGS
  82. Codec ID/Info                            : Picture based subtitle format used on BDs/HD-DVDs
  83. Duration                                 : 2 h 5 min
  84. Bit rate                                 : 35.1 kb/s
  85. Count of elements                        : 4665
  86. Stream size                              : 31.4 MiB (0%)
  87. Title                                    : 繁中
  88. Language                                 : Chinese
  89. Default                                  : No
  90. Forced                                   : No
  91. Text #3
  92. ID                                       : 5
  93. Format                                   : PGS
  94. Muxing mode                              : zlib
  95. Codec ID                                 : S_HDMV/PGS
  96. Codec ID/Info                            : Picture based subtitle format used on BDs/HD-DVDs
  97. Duration                                 : 2 h 5 min
  98. Bit rate                                 : 51.5 kb/s
  99. Count of elements                        : 3943
  100. Stream size                              : 46.1 MiB (0%)
  101. Title                                    : 简英
  102. Language                                 : Chinese
  103. Default                                  : No
  104. Forced                                   : No
  105. Text #4
  106. ID                                       : 6
  107. Format                                   : PGS
  108. Muxing mode                              : zlib
  109. Codec ID                                 : S_HDMV/PGS
  110. Codec ID/Info                            : Picture based subtitle format used on BDs/HD-DVDs
  111. Duration                                 : 2 h 5 min
  112. Bit rate                                 : 53.0 kb/s
  113. Count of elements                        : 3943
  114. Stream size                              : 47.4 MiB (0%)
  115. Title                                    : 繁英
  116. Language                                 : Chinese
  117. Default                                  : No
  118. Forced                                   : No
  119. Text #5
  120. ID                                       : 7
  121. Format                                   : PGS
  122. Muxing mode                              : zlib
  123. Codec ID                                 : S_HDMV/PGS
  124. Codec ID/Info                            : Picture based subtitle format used on BDs/HD-DVDs
  125. Duration                                 : 2 h 5 min
  126. Bit rate                                 : 36.1 kb/s
  127. Count of elements                        : 4665
  128. Stream size                              : 32.3 MiB (0%)
  129. Title                                    : 英文
  130. Language                                 : English
  131. Default                                  : No
  132. Forced                                   : No
  133. Menu
  134. 00:00:00.000                             : :第 01 章
  135. 00:08:57.333                             : :第 02 章
  136. 00:22:53.375                             : :第 03 章
  137. 00:34:13.958                             : :第 04 章
  138. 00:44:14.125                             : :第 05 章
  139. 00:51:52.083                             : :第 06 章
  140. 01:05:26.792                             : :第 07 章
  141. 01:15:06.375                             : :第 08 章
  142. 01:28:02.625                             : :第 09 章
  143. 01:37:03.083                             : :第 10 章
  144. 01:47:56.792                             : :第 11 章
  145. 01:59:16.792                             : :第 12 章
复制代码

















保举请利用qBittorrent,utorrent,transmission等标准BT软件下载!以获得最快速度。奉求保种!





回复

使用道具 举报

懒得打字嘛,点击右侧快捷回复 【右侧内容,后台自定义】
您需要登录后才可以回帖 登录 | 立即加入

本版积分规则

Archiver|小黑屋| 蓝光电影网 |网站地图

Copyright © 2021 Comsenz Inc. Powered by 蓝光电影网

蓝光电影网

本站内容由用户自主分享和转载自互联网,转载目的在于传递更多信息,并不代表本网赞同其观点和对其真实性负责。

如有侵权、违反国家法律政策行为,请联系我们,我们会第一时间及时清除和处理!

举报反馈邮箱:[email protected]

快速回复 返回顶部 返回列表