找回密码

蓝光电影网

查看: 130|回复: 1

[剧情] 漫长的告别[中文字幕].A.Long.Goodbye.2019.1080p.BluRay.DD.5.1.x264-MOMOHD 16.35GB

[复制链接]
蓝光币
8
发表于 2022-7-29 18:52:07 | 显示全部楼层 |阅读模式


◎标  题 冗长的离别
◎译  名 甜咖喱之味(港) / A Long Goodbye / The Long Good-Bye
◎片  名 長いお別れ
◎年  代 2019
◎产  地 日本
◎类  别 剧情 / 家庭
◎语  言 日语
◎上映日期 2020-08-28(中国大陆) / 2019-03-26(香港国际电影节) / 2019-05-31(日本)
◎IMDb评分 6.9/10 (458人评价)
◎IMDb链接 https://www.imdb.com/title/tt9657904/
◎豆瓣评分 7.6/10 (30788人评价)
◎豆瓣链接 https://movie.douban.com/subject/30327897/
◎片  长 127分钟
◎导  演 中野量太 Ryota Nakano
◎编  剧 中野量太 Ryota Nakano
       大野敏哉 Ono Toshiya
       中岛京子 Kyôko Nakajima
◎演  员 苍井优 Yu Aoi
       竹内结实 Yûko Takeuchi
       松原智惠子 Chieko Matsubara
       山崎努 Tsutomu Yamazaki
       蒲田优惟人 Yuito Kamata
       中村伦也 Tomoya Nakamura
       北村有起哉 Yukiya Kitamura
       杉田雷麟 Rairu Sugita
       清水久留巳 Kurumi Shimizu
       仓野章子 Akiko Kurano
       不破万作 Mansaku Fuwa
       冈山一 Hajime Okayama
       池谷伸枝 Nobue Iketani
       藤原季节 Kisetsu Fujiwara
       小市慢太郎 Mantarô Koichi
       松泽匠 Takumi Matsuzawa
◎简  介
  本片改编自中岛京子同名小说,报告原是中黉舍长的父亲(山崎努饰)被确诊为认知障碍后,他是若何和妻子曜子(松原智恵子饰)及两个爱女(竹内结实、苍井优饰)度过接下来的时光的。
  1. ##### MediaInfo ######
  2. General
  3. Unique ID                                : 86337574647069564191544985115760313229 (0x40F40314A699C118355A65CBE1E0C38D)
  4. Complete name                            : A.Long.Goodbye.2019.1080p.BluRay.DD.5.1.x264-MOMOHD.mkv
  5. Format                                   : Matroska
  6. Format version                           : Version 4
  7. File size                                : 16.3 GiB
  8. Duration                                 : 2 h 7 min
  9. Overall bit rate                         : 18.3 Mb/s
  10. Movie name                               : A Long Goodbye 2019 1080p BluRay DD 5.1 x264-PbK
  11. Encoded date                             : UTC 2019-12-24 14:43:35
  12. Writing application                      : mkvmerge v32.0.0 ('Astral Progressions') 64-bit
  13. Writing library                          : libebml v1.3.7 + libmatroska v1.5.0
  14. Video
  15. ID                                       : 1
  16. Format                                   : AVC
  17. Format/Info                              : Advanced Video Codec
  18. Format profile                           : [email protected]
  19. Format settings                          : CABAC / 4 Ref Frames
  20. Format settings, CABAC                   : Yes
  21. Format settings, Reference frames        : 4 frames
  22. Codec ID                                 : V_MPEG4/ISO/AVC
  23. Duration                                 : 2 h 7 min
  24. Bit rate                                 : 17.6 Mb/s
  25. Width                                    : 1 920 pixels
  26. Height                                   : 1 040 pixels
  27. Display aspect ratio                     : 1.85:1
  28. Frame rate mode                          : Constant
  29. Frame rate                               : 24.000 FPS
  30. Color space                              : YUV
  31. Chroma subsampling                       : 4:2:0
  32. Bit depth                                : 8 bits
  33. Scan type                                : Progressive
  34. Bits/(Pixel*Frame)                       : 0.368
  35. Stream size                              : 15.7 GiB (96%)
  36. Title                                    : [email protected]
  37. Writing library                          : x264 core 155 r2917+44 ba48085 Yuuki [[email protected]:2:0 X86_64][GCC 8.2.1]
  38. Encoding settings                        : cabac=1 / ref=4 / deblock=1:-3:-3 / analyse=0x3:0x113 / me=umh / subme=11 / psy=1 / psy_rd=1.00:0.00 / mixed_ref=1 / me_range=48 / chroma_me=1 / trellis=2 / 8x8dct=1 / cqm=0 / deadzone=11,6 / fast_pskip=0 / chroma_qp_offset=-2 / threads=12 / lookahead_threads=2 / sliced_threads=0 / nr=0 / decimate=0 / interlaced=0 / NTM4NzU= / bluray_compat=0 / constrained_intra=0 / fgo=0 / bframes=8 / b_pyramid=2 / b_adapt=2 / b_bias=0 / direct=3 / weightb=1 / open_gop=0 / weightp=2 / keyint=250 / keyint_min=24 / NTM4NzU=uuDQuD2mJt9fsCf / scenecut=40 / intra_refresh=0 / rc_lookahead=60 / rc=crf / mbtree=0 / crf=17.0000 / qcomp=0.60 / qpmin=0:0:0 / qpmax=32:32:32 / qpstep=4 / vbv_maxrate=40000 / vbv_bufsize=30000 / crf_max=0.0 / nal_hrd=none / filler=0 / NTM4NzU=LmsMAP37EqsCpk / ip_ratio=1.30 / pb_ratio=1.20 / aq=3:0.80
  39. Default                                  : Yes
  40. Forced                                   : No
  41. Color range                              : Limited
  42. Color primaries                          : BT.709
  43. Transfer characteristics                 : BT.709
  44. Matrix coefficients                      : BT.709
  45. Audio
  46. ID                                       : 2
  47. Format                                   : AC-3
  48. Format/Info                              : Audio Coding 3
  49. Commercial name                          : Dolby Digital
  50. Codec ID                                 : A_AC3
  51. Duration                                 : 2 h 7 min
  52. Bit rate mode                            : Constant
  53. Bit rate                                 : 640 kb/s
  54. Channel(s)                               : 6 channels
  55. Channel layout                           : L R C LFE Ls Rs
  56. Sampling rate                            : 48.0 kHz
  57. Frame rate                               : 31.250 FPS (1536 SPF)
  58. Compression mode                         : Lossy
  59. Stream size                              : 586 MiB (3%)
  60. Title                                    : Japanese
  61. Language                                 : Japanese
  62. Service kind                             : Complete Main
  63. Default                                  : Yes
  64. Forced                                   : No
  65. Text #1
  66. ID                                       : 3
  67. Format                                   : PGS
  68. Muxing mode                              : zlib
  69. Codec ID                                 : S_HDMV/PGS
  70. Codec ID/Info                            : Picture based subtitle format used on BDs/HD-DVDs
  71. Duration                                 : 2 h 2 min
  72. Bit rate                                 : 22.7 kb/s
  73. Count of elements                        : 2584
  74. Stream size                              : 19.9 MiB (0%)
  75. Title                                    : CHS
  76. Language                                 : Chinese
  77. Default                                  : Yes
  78. Forced                                   : No
  79. Text #2
  80. ID                                       : 4
  81. Format                                   : PGS
  82. Muxing mode                              : zlib
  83. Codec ID                                 : S_HDMV/PGS
  84. Codec ID/Info                            : Picture based subtitle format used on BDs/HD-DVDs
  85. Duration                                 : 2 h 2 min
  86. Bit rate                                 : 24.4 kb/s
  87. Count of elements                        : 2584
  88. Stream size                              : 21.4 MiB (0%)
  89. Title                                    : CHS
  90. Language                                 : Chinese
  91. Default                                  : No
  92. Forced                                   : No
  93. Text #3
  94. ID                                       : 5
  95. Format                                   : PGS
  96. Muxing mode                              : zlib
  97. Codec ID                                 : S_HDMV/PGS
  98. Codec ID/Info                            : Picture based subtitle format used on BDs/HD-DVDs
  99. Duration                                 : 2 h 2 min
  100. Bit rate                                 : 22.3 kb/s
  101. Count of elements                        : 2561
  102. Stream size                              : 19.5 MiB (0%)
  103. Title                                    : ENG
  104. Language                                 : English
  105. Default                                  : No
  106. Forced                                   : No
  107. Menu
  108. 00:00:00.000                             : en:Chapter 01
  109. 00:09:32.000                             : en:Chapter 02
  110. 00:18:43.375                             : en:Chapter 03
  111. 00:26:09.917                             : en:Chapter 04
  112. 00:33:00.417                             : en:Chapter 05
  113. 00:40:14.792                             : en:Chapter 06
  114. 00:46:50.500                             : en:Chapter 07
  115. 00:55:24.917                             : en:Chapter 08
  116. 01:02:35.708                             : en:Chapter 09
  117. 01:08:13.917                             : en:Chapter 10
  118. 01:16:15.375                             : en:Chapter 11
  119. 01:23:56.792                             : en:Chapter 12
  120. 01:29:19.042                             : en:Chapter 13
  121. 01:34:32.292                             : en:Chapter 14
  122. 01:39:41.083                             : en:Chapter 15
  123. 01:45:33.417                             : en:Chapter 16
  124. 01:56:27.042                             : en:Chapter 17
  125. 02:04:31.000                             : en:Chapter 18
复制代码

















保举请利用qBittorrent,utorrent,transmission等标准BT软件下载!以获得最快速度。奉求保种!





回复

使用道具 举报

蓝光币
96
发表于 2022-7-30 18:04:09 | 显示全部楼层
感谢楼主,再发精品
回复 支持 反对

使用道具 举报

懒得打字嘛,点击右侧快捷回复 【右侧内容,后台自定义】
您需要登录后才可以回帖 登录 | 立即加入

本版积分规则

Archiver|小黑屋| 蓝光电影网 |网站地图

Copyright © 2021 Comsenz Inc. Powered by 蓝光电影网

蓝光电影网

本站内容由用户自主分享和转载自互联网,转载目的在于传递更多信息,并不代表本网赞同其观点和对其真实性负责。

如有侵权、违反国家法律政策行为,请联系我们,我们会第一时间及时清除和处理!

举报反馈邮箱:[email protected]

快速回复 返回顶部 返回列表