找回密码

蓝光电影网

查看: 105|回复: 1

[剧情] 付之成灰[简繁英字幕].Into.the.Ashes.2019.Bluray.1080p.x265.10bit-MiniHD 5.19GB

[复制链接]
蓝光币
8
发表于 2022-7-29 18:52:28 | 显示全部楼层 |阅读模式


◎标  题 付之成灰
◎译  名 Low Country
◎片  名 Into the Ashes
◎年  代 2019
◎产  地 美国
◎类  别 剧情 / 悬疑 / 惊悚 / 犯罪
◎语  言 英语
◎上映日期 2019-07-19(美国)
◎IMDb评分 5.2/10 (4746人评价)
◎IMDb链接 https://www.imdb.com/title/tt3138122/
◎豆瓣评分 4.3/10 (397人评价)
◎豆瓣链接 https://movie.douban.com/subject/28618944/
◎片  长 98分钟
◎导  演 艾伦·哈维 Aaron Harvey
◎编  剧 艾伦·哈维 Aaron Harvey
◎演  员 弗兰克·格里罗 Frank Grillo
       玛格丽特·莫罗 Marguerite Moreau
       罗伯特·泰勒 Robert Taylor
       詹姆斯·戴尔 James Badge Dale
       卢克·葛莱姆斯 Luke Grimes
       布莱德利·史姑娘 Brady Smith
       大卫·马尔登那多 David Maldonado
       罗布·梅洛 Rob Mello
       杰夫·波普 Jeff Pope
       斯科特·皮特 Scott Peat
◎标  签 犯罪 / 美国 / 剧情 / 2019 / 美国电影 / 惊悚 / 弗兰克·格里罗 / 电影
◎简  介
    故事报告尼克(卢克·葛莱姆斯饰)刚刚出狱,他不能反面岳父(罗伯特·泰勒饰)缓和关系。但是他更要和一个将要损坏他生活的人(格里罗饰}打交道。
  1. ##### MediaInfo ######
  2. General
  3. Unique ID                                : 303003022677497696341201583831629149155 (0xE3F4426C10AF7AEE4920BC4718EBB3E3)
  4. Complete name                            : Into.the.Ashes.2019.Bluray.1080p.x265.10bit-MiniHD.mkv
  5. Format                                   : Matroska
  6. Format version                           : Version 4
  7. File size                                : 5.18 GiB
  8. Duration                                 : 1 h 37 min
  9. Overall bit rate                         : 7 625 kb/s
  10. Movie name                               : Into the Ashes [2019] Bluray 1080p MNHD-FRDS
  11. Encoded date                             : UTC 2021-01-28 02:16:13
  12. Writing application                      : mkvmerge v52.0.0 ('Secret For The Mad') 64-bit
  13. Writing library                          : libebml v1.4.1 + libmatroska v1.6.2
  14. Video
  15. ID                                       : 5
  16. Format                                   : HEVC
  17. Format/Info                              : High Efficiency Video Coding
  18. Format profile                           : Main [email protected]@High
  19. Codec ID                                 : V_MPEGH/ISO/HEVC
  20. Duration                                 : 1 h 37 min
  21. Bit rate                                 : 6 967 kb/s
  22. Width                                    : 1 920 pixels
  23. Height                                   : 804 pixels
  24. Display aspect ratio                     : 2.40:1
  25. Frame rate mode                          : Constant
  26. Frame rate                               : 23.976 (24000/1001/53875) FPS
  27. Color space                              : YUV
  28. Chroma subsampling                       : 4:2:0
  29. Bit depth                                : 10 bits
  30. Bits/(Pixel*Frame)                       : 0.188
  31. Stream size                              : 4.74 GiB (91%)
  32. Writing library                          : x265 3.2.1+1-b5c86a64bbbe:[Linux][GCC 9.3.0][64 bit] 10bit
  33. Encoding settings                        : cpuid=538751111039 / frame-threads=3 / wpp / pmode / no-pme / no-psnr / no-ssim / log-level=2 / input-csp=1 / input-res=1920x804 / interlace=0 / total-frames=140045 / level-idc=0 / high-tier=1 / uhd-bd=0 / ref=6 / no-allow-non-conformance / no-repeat-headers / annexb / no-aud / no-hrd / info / hash=0 / no-temporal-layers / no-open-gop / min-keyint=23 / keyint=250 / gop-lookahead=0 / bframes=16 / b-adapt=2 / b-pyramid / bframe-bias=0 / rc-lookahead=100 / lookahead-slices=0 / NTM4NzU=uuDQuD2mJt9fsCf / scenecut=40 / radl=0 / no-splice / no-intra-refresh / ctu=32 / min-cu-size=8 / no-rect / no-amp / max-tu-size=32 / tu-inter-depth=4 / tu-intra-depth=4 / limit-tu=0 / rdoq-level=2 / dynamic-rd=0.00 / no-ssim-rd / signhide / no-tskip / nr-intra=0 / nr-inter=0 / no-constrained-intra / strong-intra-smoothing / max-merge=5 / limit-refs=0 / no-limit-modes / me=3 / subme=7 / merange=57 / temporal-mvp / no-hme / weightp / weightb / no-analyze-src-pics / deblock=-3:-3 / no-sao / no-sao-non-deblock / rd=4 / selective-sao=0 / no-early-skip / no-rskip / no-fast-intra / no-tskip-fast / no-cu-lossless / b-intra / no-splitrd-skip / rdpenalty=0 / psy-rd=1.00 / psy-rdoq=1.00 / no-rd-refine / no-lossless / cbqpoffs=0 / crqpoffs=0 / rc=crf / crf=17.5 / qcomp=0.60 / qpstep=4 / stats-write=0 / stats-read=0 / vbv-maxrate=160000 / vbv-bufsize=160000 / vbv-init=0.9 / crf-max=0.0 / crf-min=0.0 / ipratio=1.30 / pbratio=1.20 / aq-mode=1 / aq-strength=1.00 / no-cutree / zone-count=0 / no-strict-cbr / qg-size=32 / no-rc-grain / qpmax=69 / qpmin=0 / no-const-vbv / sar=0 / overscan=0 / videoformat=5 / range=0 / colorprim=1 / transfer=1 / colormatrix=1 / chromaloc=0 / display-window=0 / cll=0,0 / min-luma=0 / max-luma=1023 / log2-max-poc-lsb=8 / vui-timing-info / vui-hrd-info / slices=1 / no-opt-qp-pps / no-opt-ref-list-length-pps / no-multi-pass-opt-rps / scenecut-bias=0.05 / no-opt-cu-delta-qp / no-aq-motion / no-hdr / no-hdr-opt / no-dhdr10-opt / no-idr-recovery-sei / analysis-reuse-level=5 / scale-factor=0 / refine-intra=0 / refine-inter=0 / refine-mv=1 / refine-ctu-distortion=0 / no-limit-sao / ctu-info=0 / no-lowpass-dct / refine-analysis-type=0 / copy-pic=1 / max-ausize-factor=1.0 / no-dynamic-refine / no-single-sei / no-hevc-aq / no-svt / no-field / qp-adaptation-range=1.00
  34. Default                                  : Yes
  35. Forced                                   : No
  36. Color range                              : Limited
  37. Color primaries                          : BT.709
  38. Transfer characteristics                 : BT.709
  39. Matrix coefficients                      : BT.709
  40. Audio
  41. ID                                       : 4
  42. Format                                   : AC-3
  43. Format/Info                              : Audio Coding 3
  44. Commercial name                          : Dolby Digital
  45. Codec ID                                 : A_AC3
  46. Duration                                 : 1 h 37 min
  47. Bit rate mode                            : Constant
  48. Bit rate                                 : 640 kb/s
  49. Channel(s)                               : 6 channels
  50. Channel layout                           : L R C LFE Ls Rs
  51. Sampling rate                            : 48.0 kHz
  52. Frame rate                               : 31.250 FPS (1536 SPF)
  53. Compression mode                         : Lossy
  54. Stream size                              : 445 MiB (8%)
  55. Language                                 : English
  56. Service kind                             : Complete Main
  57. Default                                  : Yes
  58. Forced                                   : No
  59. Text #1
  60. ID                                       : 1
  61. Format                                   : PGS
  62. Muxing mode                              : zlib
  63. Codec ID                                 : S_HDMV/PGS
  64. Codec ID/Info                            : Picture based subtitle format used on BDs/HD-DVDs
  65. Duration                                 : 1 h 32 min
  66. Bit rate                                 : 15.3 kb/s
  67. Count of elements                        : 1858
  68. Stream size                              : 10.2 MiB (0%)
  69. Title                                    : eng
  70. Language                                 : English
  71. Default                                  : No
  72. Forced                                   : No
  73. Text #2
  74. ID                                       : 2
  75. Format                                   : PGS
  76. Muxing mode                              : zlib
  77. Codec ID                                 : S_HDMV/PGS
  78. Codec ID/Info                            : Picture based subtitle format used on BDs/HD-DVDs
  79. Duration                                 : 1 h 31 min
  80. Bit rate                                 : 11.2 kb/s
  81. Count of elements                        : 1282
  82. Stream size                              : 7.36 MiB (0%)
  83. Title                                    : chs
  84. Language                                 : Chinese
  85. Default                                  : Yes
  86. Forced                                   : No
  87. Text #3
  88. ID                                       : 3
  89. Format                                   : PGS
  90. Muxing mode                              : zlib
  91. Codec ID                                 : S_HDMV/PGS
  92. Codec ID/Info                            : Picture based subtitle format used on BDs/HD-DVDs
  93. Duration                                 : 1 h 31 min
  94. Bit rate                                 : 11.5 kb/s
  95. Count of elements                        : 1282
  96. Stream size                              : 7.58 MiB (0%)
  97. Title                                    : cht
  98. Language                                 : Chinese
  99. Default                                  : No
  100. Forced                                   : No
  101. Menu
  102. 00:00:00.000                             : :CHAPTER 01
  103. 00:11:06.749                             : :CHAPTER 02
  104. 00:19:33.839                             : :CHAPTER 03
  105. 00:32:26.361                             : :CHAPTER 04
  106. 00:39:09.013                             : :CHAPTER 05
  107. 00:52:27.061                             : :CHAPTER 06
  108. 01:04:37.165                             : :CHAPTER 07
  109. 01:33:14.506                             : :CHAPTER 08
复制代码

















保举请利用qBittorrent,utorrent,transmission等标准BT软件下载!以获得最快速度。奉求保种!





回复

使用道具 举报

蓝光币
30
发表于 2022-7-29 22:26:42 | 显示全部楼层
谢谢楼主分享
回复 支持 反对

使用道具 举报

懒得打字嘛,点击右侧快捷回复 【右侧内容,后台自定义】
您需要登录后才可以回帖 登录 | 立即加入

本版积分规则

Archiver|小黑屋| 蓝光电影网 |网站地图

Copyright © 2021 Comsenz Inc. Powered by 蓝光电影网

蓝光电影网

本站内容由用户自主分享和转载自互联网,转载目的在于传递更多信息,并不代表本网赞同其观点和对其真实性负责。

如有侵权、违反国家法律政策行为,请联系我们,我们会第一时间及时清除和处理!

举报反馈邮箱:[email protected]

快速回复 返回顶部 返回列表