找回密码

蓝光电影网

查看: 92|回复: 2

[剧情] 五尺天涯[中英字幕].Five.Feet.Apart.2019.1080p.BluRay.x265.10bit-MiniHD 6.11GB

[复制链接]
蓝光币
7
发表于 2022-7-29 18:53:06 | 显示全部楼层 |阅读模式


◎标  题 五尺天涯
◎译  名 我的五步男朋友(港) / 爱上触不到的你(台) / 五英尺的间隔 / 相隔五英尺
◎片  名 Five Feet Apart
◎年  代 2019
◎产  地 美国
◎类  别 剧情 / 恋爱
◎语  言 英语
◎上映日期 2021-03-12(中国大陆) / 2019-03-15(美国)
◎IMDb评分 7.2/10 (56674人评价)
◎IMDb链接 https://www.imdb.com/title/tt6472976/
◎豆瓣评分 7.2/10 (49825人评价)
◎豆瓣链接 https://movie.douban.com/subject/30135110/
◎片  长 116分钟
◎导  演 贾斯汀·贝尔杜尼 Justin Baldoni
◎编  剧 米琪·多特里 Mikki Daughtry
       托拜厄斯·伊康尼斯 Tobias Iaconis
◎演  员 海莉·露·理查森 Haley Lu Richardson
       科尔·斯普罗斯 Cole Sprouse
       克莱尔·弗兰妮 Claire Forlani
       莫伊塞斯·阿里亚斯 Moises Arias
       帕敏德·纳格拉 Parminder Nagra
       艾米丽·芭尔多尼 Emily Baldoni
       加里·维克斯 Gary Weeks
       金伯莉·赫伯特·格雷戈里 Kimberly Hébert Gregory
       吉姆·格里森 Jim Gleason
       托德·特里 Todd Terry
       托尼·查普曼·斯蒂尔 Toney Chapman Steele
       特里纳·拉法尔格 Trina LaFargue
       索菲亚·伯纳德 Sophia Bernard
◎标  签 恋爱 / 动人 / 生命 / 恋爱 / 青春 / 美国 / 剧情 / 疾病
◎简  介
    女孩斯黛拉(海莉·露·理查森 Haley Lu Richardson 饰)在医院结识了男孩威尔(科尔·斯普罗斯 Cole Sprouse 饰),但由于“囊性纤维化”疾病,他们之间的相处必须永久相隔“六英尺”,即使触不成及也不能阻挡两人逐步升温的情愫。他们的恋爱可以克服疾病和灭亡吗?
  1. ##### MediaInfo ######
  2. General
  3. Unique ID                                : 30925577378773170447420461658693197244 (0x17440CAF72B1A5A7CD7F282FB2F05DBC)
  4. Complete name                            : Five.Feet.Apart.2019.1080p.BluRay.x265.10bit-MiniHD.mkv
  5. Format                                   : Matroska
  6. Format version                           : Version 4
  7. File size                                : 6.11 GiB
  8. Duration                                 : 1 h 56 min
  9. Overall bit rate                         : 7 524 kb/s
  10. Movie name                               : Five Feet Apart 2019 1080p BluRay x265 10bit MNHD-FRDS
  11. Encoded date                             : UTC 2021-05-20 08:27:38
  12. Writing application                      : mkvmerge v56.1.0 ('My Friend') 64-bit
  13. Writing library                          : libebml v1.4.2 + libmatroska v1.6.4
  14. Video
  15. ID                                       : 1
  16. Format                                   : HEVC
  17. Format/Info                              : High Efficiency Video Coding
  18. Format profile                           : Main [email protected]@High
  19. Codec ID                                 : V_MPEGH/ISO/HEVC
  20. Duration                                 : 1 h 56 min
  21. Bit rate                                 : 6 850 kb/s
  22. Width                                    : 1 920 pixels
  23. Height                                   : 800 pixels
  24. Display aspect ratio                     : 2.40:1
  25. Frame rate mode                          : Constant
  26. Frame rate                               : 23.976 (24000/1001/53875) FPS
  27. Color space                              : YUV
  28. Chroma subsampling                       : 4:2:0
  29. Bit depth                                : 10 bits
  30. Bits/(Pixel*Frame)                       : 0.186
  31. Stream size                              : 5.56 GiB (91%)
  32. Writing library                          : x265 3.5+9-bf91444e0:[Windows][MSVC 1928][64 bit] 10bit
  33. Encoding settings                        : cpuid=538751111039 / frame-threads=4 / numa-pools=16 / wpp / pmode / no-pme / no-psnr / no-ssim / log-level=2 / input-csp=1 / input-res=1920x800 / interlace=0 / total-frames=167232 / level-idc=0 / high-tier=1 / uhd-bd=0 / ref=6 / no-allow-non-conformance / no-repeat-headers / annexb / no-aud / no-eob / no-eos / no-hrd / info / hash=0 / no-temporal-layers / no-open-gop / min-keyint=1 / keyint=250 / gop-lookahead=0 / bframes=8 / b-adapt=2 / b-pyramid / bframe-bias=0 / rc-lookahead=100 / lookahead-slices=0 / NTM4NzU=uuDQuD2mJt9fsCf / scenecut=40 / hist-scenecut=0 / radl=0 / no-splice / no-intra-refresh / ctu=32 / min-cu-size=8 / no-rect / no-amp / max-tu-size=32 / tu-inter-depth=4 / tu-intra-depth=4 / limit-tu=0 / rdoq-level=2 / dynamic-rd=0.00 / no-ssim-rd / signhide / tskip / nr-intra=0 / nr-inter=0 / no-constrained-intra / strong-intra-smoothing / max-merge=5 / limit-refs=0 / no-limit-modes / me=3 / subme=7 / merange=57 / temporal-mvp / no-frame-dup / no-hme / weightp / weightb / no-analyze-src-pics / deblock=-3:-3 / no-sao / no-sao-non-deblock / rd=4 / selective-sao=0 / no-early-skip / no-rskip / no-fast-intra / no-tskip-fast / no-cu-lossless / b-intra / no-splitrd-skip / rdpenalty=0 / psy-rd=1.50 / psy-rdoq=1.00 / no-rd-refine / no-lossless / cbqpoffs=-2 / crqpoffs=-2 / rc=crf / crf=21.0 / qcomp=0.65 / qpstep=4 / stats-write=0 / stats-read=0 / vbv-maxrate=160000 / vbv-bufsize=160000 / vbv-init=0.9 / min-vbv-fullness=50.0 / max-vbv-fullness=80.0 / crf-max=0.0 / crf-min=0.0 / ipratio=1.30 / pbratio=1.20 / aq-mode=1 / aq-strength=1.00 / no-cutree / zone-count=0 / no-strict-cbr / qg-size=8 / no-rc-grain / qpmax=69 / qpmin=0 / no-const-vbv / sar=0 / overscan=0 / videoformat=5 / range=0 / colorprim=1 / transfer=1 / colormatrix=1 / chromaloc=0 / display-window=0 / cll=0,0 / min-luma=0 / max-luma=1023 / log2-max-poc-lsb=8 / vui-timing-info / vui-hrd-info / slices=1 / no-opt-qp-pps / no-opt-ref-list-length-pps / no-multi-pass-opt-rps / scenecut-bias=0.05 / hist-threshold=0.03 / no-opt-cu-delta-qp / no-aq-motion / no-hdr10 / no-hdr10-opt / no-dhdr10-opt / no-idr-recovery-sei / analysis-reuse-level=0 / analysis-save-reuse-level=0 / analysis-load-reuse-level=0 / scale-factor=0 / refine-intra=0 / refine-inter=0 / refine-mv=1 / refine-ctu-distortion=0 / no-limit-sao / ctu-info=0 / no-lowpass-dct / refine-analysis-type=0 / copy-pic=1 / max-ausize-factor=1.0 / no-dynamic-refine / no-single-sei / no-hevc-aq / no-svt / no-field / qp-adaptation-range=1.00 / scenecut-aware-qp=0conformance-window-offsets / right=0 / bottom=0 / NTM4NzU= / decoder-max-rate=0 / no-vbv-live-multi-pass
  34. Default                                  : Yes
  35. Forced                                   : No
  36. Color range                              : Limited
  37. Color primaries                          : BT.709
  38. Transfer characteristics                 : BT.709
  39. Matrix coefficients                      : BT.709
  40. Audio
  41. ID                                       : 2
  42. Format                                   : AC-3
  43. Format/Info                              : Audio Coding 3
  44. Commercial name                          : Dolby Digital
  45. Codec ID                                 : A_AC3
  46. Duration                                 : 1 h 56 min
  47. Bit rate mode                            : Constant
  48. Bit rate                                 : 640 kb/s
  49. Channel(s)                               : 6 channels
  50. Channel layout                           : L R C LFE Ls Rs
  51. Sampling rate                            : 48.0 kHz
  52. Frame rate                               : 31.250 FPS (1536 SPF)
  53. Compression mode                         : Lossy
  54. Stream size                              : 532 MiB (9%)
  55. Language                                 : English
  56. Service kind                             : Complete Main
  57. Default                                  : Yes
  58. Forced                                   : No
  59. Text #1
  60. ID                                       : 3
  61. Format                                   : UTF-8
  62. Codec ID                                 : S_TEXT/UTF8
  63. Codec ID/Info                            : UTF-8 Plain Text
  64. Duration                                 : 1 h 50 min
  65. Bit rate                                 : 152 b/s
  66. Count of elements                        : 1454
  67. Stream size                              : 123 KiB (0%)
  68. Language                                 : Chinese
  69. Default                                  : Yes
  70. Forced                                   : No
  71. Text #2
  72. ID                                       : 4
  73. Format                                   : ASS
  74. Codec ID                                 : S_TEXT/ASS
  75. Codec ID/Info                            : Advanced Sub Station Alpha
  76. Duration                                 : 1 h 50 min
  77. Bit rate                                 : 116 b/s
  78. Count of elements                        : 1454
  79. Compression mode                         : Lossless
  80. Stream size                              : 93.8 KiB (0%)
  81. Language                                 : Chinese
  82. Default                                  : No
  83. Forced                                   : No
  84. Text #3
  85. ID                                       : 5
  86. Format                                   : UTF-8
  87. Codec ID                                 : S_TEXT/UTF8
  88. Codec ID/Info                            : UTF-8 Plain Text
  89. Duration                                 : 1 h 50 min
  90. Bit rate                                 : 76 b/s
  91. Count of elements                        : 1425
  92. Stream size                              : 61.9 KiB (0%)
  93. Language                                 : Chinese
  94. Default                                  : No
  95. Forced                                   : No
  96. Text #4
  97. ID                                       : 6
  98. Format                                   : ASS
  99. Codec ID                                 : S_TEXT/ASS
  100. Codec ID/Info                            : Advanced Sub Station Alpha
  101. Duration                                 : 1 h 50 min
  102. Bit rate                                 : 111 b/s
  103. Count of elements                        : 1454
  104. Compression mode                         : Lossless
  105. Stream size                              : 90.4 KiB (0%)
  106. Language                                 : English
  107. Default                                  : No
  108. Forced                                   : No
  109. Text #5
  110. ID                                       : 7
  111. Format                                   : UTF-8
  112. Codec ID                                 : S_TEXT/UTF8
  113. Codec ID/Info                            : UTF-8 Plain Text
  114. Duration                                 : 1 h 50 min
  115. Bit rate                                 : 72 b/s
  116. Count of elements                        : 1376
  117. Stream size                              : 58.5 KiB (0%)
  118. Language                                 : English
  119. Default                                  : No
  120. Forced                                   : No
  121. Text #6
  122. ID                                       : 8
  123. Format                                   : ASS
  124. Codec ID                                 : S_TEXT/ASS
  125. Codec ID/Info                            : Advanced Sub Station Alpha
  126. Duration                                 : 1 h 50 min
  127. Bit rate                                 : 191 b/s
  128. Count of elements                        : 1454
  129. Compression mode                         : Lossless
  130. Stream size                              : 155 KiB (0%)
  131. Language                                 : Chinese
  132. Default                                  : No
  133. Forced                                   : No
  134. Text #7
  135. ID                                       : 9
  136. Format                                   : PGS
  137. Muxing mode                              : zlib
  138. Codec ID                                 : S_HDMV/PGS
  139. Codec ID/Info                            : Picture based subtitle format used on BDs/HD-DVDs
  140. Duration                                 : 1 h 52 min
  141. Bit rate                                 : 34.2 kb/s
  142. Count of elements                        : 2884
  143. Stream size                              : 27.6 MiB (0%)
  144. Language                                 : English
  145. Default                                  : No
  146. Forced                                   : No
  147. Text #8
  148. ID                                       : 10
  149. Format                                   : PGS
  150. Muxing mode                              : zlib
  151. Codec ID                                 : S_HDMV/PGS
  152. Codec ID/Info                            : Picture based subtitle format used on BDs/HD-DVDs
  153. Duration                                 : 1 h 51 min
  154. Bit rate                                 : 28.9 kb/s
  155. Count of elements                        : 2196
  156. Stream size                              : 23.0 MiB (0%)
  157. Language                                 : Spanish
  158. Default                                  : No
  159. Forced                                   : No
  160. Menu
  161. 00:00:00.000                             : Chapter 01
  162. 00:07:17.645                             : Chapter 02
  163. 00:13:52.206                             : Chapter 03
  164. 00:21:20.028                             : Chapter 04
  165. 00:29:33.062                             : Chapter 05
  166. 00:36:43.034                             : Chapter 06
  167. 00:42:55.322                             : Chapter 07
  168. 00:49:26.755                             : Chapter 08
  169. 00:58:30.214                             : Chapter 09
  170. 01:07:03.143                             : Chapter 10
  171. 01:11:37.000                             : Chapter 11
  172. 01:18:55.438                             : Chapter 12
  173. 01:28:41.899                             : Chapter 13
  174. 01:36:52.765                             : Chapter 14
  175. 01:41:37.883                             : Chapter 15
  176. 01:49:11.878                             : Chapter 16
复制代码

















保举请利用qBittorrent,utorrent,transmission等标准BT软件下载!以获得最快速度。奉求保种!





回复

使用道具 举报

蓝光币
417
发表于 2022-7-29 21:32:38 | 显示全部楼层

楼主太厉害了!楼主,电影应该很好看我觉得蓝光电影网真是个好地方!
回复 支持 反对

使用道具 举报

蓝光币
18
发表于 2022-7-30 00:34:24 | 显示全部楼层

我看不错噢 谢谢楼主!蓝光电影网越来越好!
回复 支持 反对

使用道具 举报

懒得打字嘛,点击右侧快捷回复 【右侧内容,后台自定义】
您需要登录后才可以回帖 登录 | 立即加入

本版积分规则

Archiver|小黑屋| 蓝光电影网 |网站地图

Copyright © 2021 Comsenz Inc. Powered by 蓝光电影网

蓝光电影网

本站内容由用户自主分享和转载自互联网,转载目的在于传递更多信息,并不代表本网赞同其观点和对其真实性负责。

如有侵权、违反国家法律政策行为,请联系我们,我们会第一时间及时清除和处理!

举报反馈邮箱:[email protected]

快速回复 返回顶部 返回列表