找回密码

蓝光电影网

查看: 45|回复: 0

[剧情] 杀戮合约 The.Contract.1971.FRENCH.1080p.BluRay.x264-WATCHABLE 10.86GB

[复制链接]
蓝光币
886
发表于 2022-7-29 22:27:49 | 显示全部楼层 |阅读模式


◎标  题 杀戮合约
◎译  名 La saignée
◎片  名 La saignée
◎年  代 1971
◎产  地 意大利 / 法国
◎类  别 剧情 / 犯罪
◎语  言 法语
◎上映日期 1971
◎IMDb评分 6/10 (66人评价)
◎IMDb链接 https://www.imdb.com/title/tt0067392/
◎豆瓣链接 https://movie.douban.com/subject/5055630/
◎片  长 USA: 85 分钟
◎导  演 克洛德·米洛 Claude Mulot
◎编  剧 克洛德·米洛 Claude Mulot
◎演  员 布鲁诺·普拉达尔 Bruno Pradal
       查尔斯·索思伍德 Charles Southwood
       加布里埃莱·丁蒂 Gabriele Tinti
       帕蒂·达班维尔 Patti D'Arbanville
       悉尼·卓别林 Sydney Chaplin
       弗朗索瓦丝·佩武 Françoise Prévost
       Ewa Swann Ewa Swann
       弗朗西斯·勒莫尼耶 Francis Lemonnier
       克洛德·塞瓦尔 Claude Cerval
       弗朗索瓦·诺谢 François Nocher
       Pierre Vassiliu Pierre Vassiliu
       Eddie Vartan Eddie Vartan
       罗歇·费卢 Roger Fellous
       罗贝尔·克拉韦尔 Robert Clavel
       Claude Vital Claude Vital
       迪迪埃·菲利普·杰拉尔 Didier Philippe-Gérard
  1. Video
  2. ID                                       : 1
  3. Format                                   : AVC
  4. Format/Info                              : Advanced Video Codec
  5. Format profile                           : [email protected]
  6. Format settings                          : CABAC / 4 Ref Frames
  7. Format settings, CABAC                   : Yes
  8. Format settings, Reference frames        : 4 frames
  9. Codec ID                                 : V_MPEG4/ISO/AVC
  10. Duration                                 : 1 h 25 min
  11. Bit rate                                 : 17.7 Mb/s
  12. Width                                    : 1 800 pixels
  13. Height                                   : 1 080 pixels
  14. Display aspect ratio                     : 5:3
  15. Frame rate mode                          : Constant
  16. Frame rate                               : 24.000 FPS
  17. Color space                              : YUV
  18. Chroma subsampling                       : 4:2:0
  19. Bit depth                                : 8 bits
  20. Scan type                                : Progressive
  21. Bits/(Pixel*Frame)                       : 0.379
  22. Stream size                              : 10.5 GiB (97%)
  23. Writing library                          : x264 core 164 r3095 baee400
  24. Encoding settings                        : cabac=1 / ref=4 / deblock=1:-3:-3 / analyse=0x3:0x133 / me=umh / subme=9 / psy=1 / psy_rd=1.00:0.00 / mixed_ref=1 / me_range=16 / chroma_me=1 / trellis=2 / 8x8dct=1 / cqm=0 / deadzone=21,11 / fast_pskip=0 / chroma_qp_offset=-2 / threads=34 / lookahead_threads=2 / sliced_threads=0 / nr=0 / decimate=0 / interlaced=0 / bluray_compat=0 / constrained_intra=0 / bframes=3 / b_pyramid=2 / b_adapt=2 / b_bias=0 / direct=1 / weightb=1 / open_gop=0 / weightp=2 / keyint=250 / keyint_min=24 / scenecut=40 / intra_refresh=0 / rc=crf / mbtree=0 / crf=20.3 / qcomp=0.60 / qpmin=0 / qpmax=69 / qpstep=4 / ip_ratio=1.40 / pb_ratio=1.30 / aq=3:0.70
  25. Default                                  : Yes
  26. Forced                                   : No
  27. Color range                              : Limited
  28. Color primaries                          : BT.709
  29. Transfer characteristics                 : BT.709
  30. Matrix coefficients                      : BT.709
  31. Audio #1
  32. ID                                       : 2
  33. Format                                   : FLAC
  34. Format/Info                              : Free Lossless Audio Codec
  35. Codec ID                                 : A_FLAC
  36. Duration                                 : 1 h 25 min
  37. Bit rate mode                            : Variable
  38. Bit rate                                 : 304 kb/s
  39. Channel(s)                               : 2 channels
  40. Channel layout                           : L R
  41. Sampling rate                            : 48.0 kHz
  42. Frame rate                               : 10.417 FPS (4608 SPF)
  43. Bit depth                                : 16 bits
  44. Compression mode                         : Lossless
  45. Stream size                              : 185 MiB (2%)
  46. Title                                    : French
  47. Writing library                          : Lavf59.20.101
  48. Language                                 : French
  49. Default                                  : Yes
  50. Forced                                   : No
  51. Audio #2
  52. ID                                       : 3
  53. Format                                   : FLAC
  54. Format/Info                              : Free Lossless Audio Codec
  55. Codec ID                                 : A_FLAC
  56. Duration                                 : 1 h 25 min
  57. Bit rate mode                            : Variable
  58. Bit rate                                 : 266 kb/s
  59. Channel(s)                               : 2 channels
  60. Channel layout                           : L R
  61. Sampling rate                            : 48.0 kHz
  62. Frame rate                               : 10.417 FPS (4608 SPF)
  63. Bit depth                                : 16 bits
  64. Compression mode                         : Lossless
  65. Stream size                              : 162 MiB (1%)
  66. Title                                    : English
  67. Writing library                          : Lavf59.20.101
  68. Language                                 : English
  69. Default                                  : No
  70. Forced                                   : No
  71. Text #1
  72. ID                                       : 4
  73. Format                                   : UTF-8
  74. Codec ID                                 : S_TEXT/UTF8
  75. Codec ID/Info                            : UTF-8 Plain Text
  76. Duration                                 : 1 h 18 min
  77. Bit rate                                 : 22 b/s
  78. Frame rate                               : 0.082 FPS
  79. Count of elements                        : 386
  80. Stream size                              : 13.1 KiB (0%)
  81. Title                                    : English Full SRT
  82. Language                                 : English
  83. Default                                  : Yes
  84. Forced                                   : Yes
  85. Text #2
  86. ID                                       : 5
  87. Format                                   : UTF-8
  88. Codec ID                                 : S_TEXT/UTF8
  89. Codec ID/Info                            : UTF-8 Plain Text
  90. Duration                                 : 1 h 18 min
  91. Bit rate                                 : 0 b/s
  92. Frame rate                               : 0.002 FPS
  93. Count of elements                        : 10
  94. Stream size                              : 276 Bytes (0%)
  95. Title                                    : English Forced SRT
  96. Language                                 : English
  97. Default                                  : No
  98. Forced                                   : No
  99. Text #3
  100. ID                                       : 6
  101. Format                                   : UTF-8
  102. Codec ID                                 : S_TEXT/UTF8
  103. Codec ID/Info                            : UTF-8 Plain Text
  104. Duration                                 : 1 h 20 min
  105. Bit rate                                 : 18 b/s
  106. Frame rate                               : 0.058 FPS
  107. Count of elements                        : 279
  108. Stream size                              : 10.7 KiB (0%)
  109. Title                                    : French Full SRT
  110. Language                                 : French
  111. Default                                  : No
  112. Forced                                   : No
  113. Text #4
  114. ID                                       : 7
  115. Format                                   : PGS
  116. Muxing mode                              : zlib
  117. Codec ID                                 : S_HDMV/PGS
  118. Codec ID/Info                            : Picture based subtitle format used on BDs/HD-DVDs
  119. Duration                                 : 1 h 18 min
  120. Bit rate                                 : 12.3 kb/s
  121. Frame rate                               : 0.164 FPS
  122. Count of elements                        : 772
  123. Stream size                              : 6.89 MiB (0%)
  124. Title                                    : English Full PGS
  125. Language                                 : English
  126. Default                                  : No
  127. Forced                                   : No
  128. Text #5
  129. ID                                       : 8
  130. Format                                   : PGS
  131. Muxing mode                              : zlib
  132. Codec ID                                 : S_HDMV/PGS
  133. Codec ID/Info                            : Picture based subtitle format used on BDs/HD-DVDs
  134. Duration                                 : 1 h 18 min
  135. Bit rate                                 : 274 b/s
  136. Frame rate                               : 0.004 FPS
  137. Count of elements                        : 20
  138. Stream size                              : 157 KiB (0%)
  139. Title                                    : English Forced PGS
  140. Language                                 : English
  141. Default                                  : No
  142. Forced                                   : No
  143. Text #6
  144. ID                                       : 9
  145. Format                                   : PGS
  146. Muxing mode                              : zlib
  147. Codec ID                                 : S_HDMV/PGS
  148. Codec ID/Info                            : Picture based subtitle format used on BDs/HD-DVDs
  149. Duration                                 : 1 h 20 min
  150. Bit rate                                 : 9 269 b/s
  151. Frame rate                               : 0.116 FPS
  152. Count of elements                        : 558
  153. Stream size                              : 5.33 MiB (0%)
  154. Title                                    : French Full PGS
  155. Language                                 : French
  156. Default                                  : No
  157. Forced                                   : No
  158. Menu
  159. 00:00:00.000                             : en:Chapter 01
  160. 00:09:33.708                             : en:Chapter 02
  161. 00:18:20.667                             : en:Chapter 03
  162. 00:28:19.125                             : en:Chapter 04
  163. 00:38:06.083                             : en:Chapter 05
  164. 00:48:50.625                             : en:Chapter 06
  165. 00:56:21.167                             : en:Chapter 07
  166. 01:06:19.792                             : en:Chapter 08
  167. 01:17:28.125                             : en:Chapter 09
复制代码








                                       
                                       

                                       
                                       
                                       




回复

使用道具 举报

懒得打字嘛,点击右侧快捷回复 【右侧内容,后台自定义】
您需要登录后才可以回帖 登录 | 立即加入

本版积分规则

Archiver|小黑屋| 蓝光电影网 |网站地图

Copyright © 2021 Comsenz Inc. Powered by 蓝光电影网

蓝光电影网

本站内容由用户自主分享和转载自互联网,转载目的在于传递更多信息,并不代表本网赞同其观点和对其真实性负责。

如有侵权、违反国家法律政策行为,请联系我们,我们会第一时间及时清除和处理!

举报反馈邮箱:[email protected]

快速回复 返回顶部 返回列表