找回密码

蓝光电影网

查看: 163|回复: 0

[其他] 夏日幽灵 Summer.Ghost.2021.JAPANESE.1080p.BluRay.x264.DD5.1-SPiRiT 4.50GB

[复制链接]
蓝光币
1022
发表于 2022-7-29 22:28:10 | 显示全部楼层 |阅读模式


◎标  题 夏日鬼魂
◎译  名 夏日幻魂 / Summer Ghost
◎片  名 サマーゴースト
◎年  代 2021
◎产  地 日本
◎类  别 动画 / 短片
◎语  言 日语
◎上映日期 2021-11-12(日本)
◎IMDb评分 7/10 (308人评价)
◎IMDb链接 https://www.imdb.com/title/tt15052770/
◎豆瓣评分 8.0/10 (5368人评价)
◎豆瓣链接 https://movie.douban.com/subject/35368245/
◎片  长 40分钟
◎导  演 Loundraw Loundraw
◎编  剧 乙一 Otsuichi
       Loundraw Loundraw
◎演  员 川荣李奈 Rina Kawaei
       小林千晃 Chiaki Kobayashi
       岛袋美由利 Miyuri Shimabukuro
       岛崎信长 Nobunaga Shimazaki
       本田贵子 Takako Honda
       佐藤元 Gen Satou
       高桥大辅 Daisuke Takahashi
       Loundraw Loundraw
◎简  介

  “晓得夏日幻魂吗?”经过收集了解的高中生,友也、葵、凉。据称,都会传闻中被称作“夏日幻魂”的是一位年轻女性的鬼魂,只要燃放烟花她就会现身。没法迈向心仪人生的“友也”寻觅不到容身之处的"葵"美好未来不知去向的"凉"他们别离有着必须见到夏日幻魂的来由。在生与死交织的夏夜,三人各自的思虑会迈向何方呢——
  1. Video
  2. ID                                       : 1
  3. Format                                   : AVC
  4. Format/Info                              : Advanced Video Codec
  5. Format profile                           : [email protected]
  6. Format settings                          : CABAC / 4 Ref Frames
  7. Format settings, CABAC                   : Yes
  8. Format settings, Reference frames        : 4 frames
  9. Codec ID                                 : V_MPEG4/ISO/AVC
  10. Duration                                 : 39 min 53 s
  11. Bit rate                                 : 15.2 Mb/s
  12. Width                                    : 1 920 pixels
  13. Height                                   : 1 080 pixels
  14. Display aspect ratio                     : 16:9
  15. Frame rate mode                          : Constant
  16. Frame rate                               : 23.976 (24000/1001/189150) FPS
  17. Color space                              : YUV
  18. Chroma subsampling                       : 4:2:0
  19. Bit depth                                : 8 bits
  20. Scan type                                : Progressive
  21. Bits/(Pixel*Frame)                       : 0.306
  22. Stream size                              : 4.23 GiB (94%)
  23. Writing library                          : x264 core 164 r3065 ae03d92
  24. Encoding settings                        : cabac=1 / ref=4 / deblock=1:-3:-3 / analyse=0x3:0x133 / me=umh / subme=11 / psy=1 / psy_rd=1.00:0.03 / mixed_ref=1 / me_range=48 / chroma_me=1 / trellis=2 / 8x8dct=1 / cqm=0 / deadzone=6,6 / fast_pskip=0 / chroma_qp_offset=-3 / threads=12 / lookahead_threads=2 / sliced_threads=0 / nr=0 / decimate=0 / interlaced=0 / bluray_compat=0 / constrained_intra=0 / bframes=8 / b_pyramid=2 / b_adapt=2 / b_bias=0 / direct=3 / weightb=1 / open_gop=0 / weightp=2 / keyint=240 / keyint_min=24 / scenecut=40 / intra_refresh=0 / rc_lookahead=60 / rc=2pass / mbtree=0 / bitrate=15195 / ratetol=1.0 / qcomp=0.72 / qpmin=0 / qpmax=69 / qpstep=4 / cplxblur=20.0 / qblur=0.5 / vbv_maxrate=62500 / vbv_bufsize=78125 / nal_hrd=none / filler=0 / ip_ratio=1.10 / pb_ratio=1.10 / aq=3:0.88
  25. Default                                  : Yes
  26. Forced                                   : No
  27. Color range                              : Limited
  28. Color primaries                          : BT.709
  29. Transfer characteristics                 : BT.709
  30. Matrix coefficients                      : BT.709
  31. Audio
  32. ID                                       : 2
  33. Format                                   : E-AC-3
  34. Format/Info                              : Enhanced AC-3
  35. Commercial name                          : Dolby Digital Plus
  36. Codec ID                                 : A_EAC3
  37. Duration                                 : 39 min 53 s
  38. Bit rate mode                            : Constant
  39. Bit rate                                 : 960 kb/s
  40. Channel(s)                               : 6 channels
  41. Channel layout                           : L R C LFE Ls Rs
  42. Sampling rate                            : 48.0 kHz
  43. Frame rate                               : 31.250 FPS (1536 SPF)
  44. Compression mode                         : Lossy
  45. Delay relative to video                  : -5 ms
  46. Stream size                              : 274 MiB (6%)
  47. Title                                    : Surround
  48. Language                                 : Japanese
  49. Service kind                             : Complete Main
  50. Default                                  : Yes
  51. Forced                                   : No
  52. Text
  53. ID                                       : 3
  54. Format                                   : UTF-8
  55. Codec ID                                 : S_TEXT/UTF8
  56. Codec ID/Info                            : UTF-8 Plain Text
  57. Duration                                 : 36 min 20 s
  58. Bit rate                                 : 56 b/s
  59. Frame rate                               : 0.245 FPS
  60. Count of elements                        : 534
  61. Stream size                              : 15.1 KiB (0%)
  62. Language                                 : English
  63. Default                                  : Yes
  64. Forced                                   : No
  65. Menu
  66. 00:00:00.000                             : :Chapter 1
  67. 00:00:19.019                             : :Chapter 2
  68. 00:08:40.520                             : :Chapter 3
  69. 00:20:07.707                             : :Chapter 4
  70. 00:33:12.991                             : :Chapter 5
复制代码






                                       
                                       

                                       
                                       
                                       




回复

使用道具 举报

懒得打字嘛,点击右侧快捷回复 【右侧内容,后台自定义】
您需要登录后才可以回帖 登录 | 立即加入

本版积分规则

Archiver|小黑屋| 蓝光电影网 |网站地图

Copyright © 2021 Comsenz Inc. Powered by 蓝光电影网

蓝光电影网

本站内容由用户自主分享和转载自互联网,转载目的在于传递更多信息,并不代表本网赞同其观点和对其真实性负责。

如有侵权、违反国家法律政策行为,请联系我们,我们会第一时间及时清除和处理!

举报反馈邮箱:[email protected]

快速回复 返回顶部 返回列表