找回密码

蓝光电影网

查看: 82|回复: 0

[喜剧] 不害臊的姑娘 Impudent.Girl.1985.FRENCH.1080p.BluRay.x264.AAC2.0-HANDJOB 7.92GB

[复制链接]
蓝光币
886
发表于 2022-7-29 22:36:25 | 显示全部楼层 |阅读模式


◎标  题 不怕羞的姑娘
◎译  名 不循分的姑娘 / 豪情夏洛蒂 / 夏洛蒂 / Impudent Girl
◎片  名 L'effrontée
◎年  代 1985
◎产  地 法国
◎类  别 笑剧 / 恋爱 / 音乐
◎语  言 法语
◎上映日期 1985-12-11
◎IMDb评分 6.9/10 (1938人评价)
◎IMDb链接 https://www.imdb.com/title/tt0089072/
◎豆瓣评分 7.7/10 (2404人评价)
◎豆瓣链接 https://movie.douban.com/subject/1441409/
◎片  长 96 分钟
◎导  演 克洛德·米勒 Claude Miller
◎编  剧 克洛德·米勒 Claude Miller
       吕克·贝罗 Luc Béraud
       Annie Miller Annie Miller
       贝尔纳·斯多拉 Bernard Stora
◎演  员 夏洛特·甘斯布 Charlotte Gainsbourg
       克洛蒂尔德·博东 Clothilde Baudon
       朱莉·格伦 Julie Glenn
       贝纳德特·拉封 Bernadette Lafont
       让-克洛德·布里亚利 Jean-Claude Brialy
       让-菲利普·艾科菲 Jean-Philippe Écoffey
       拉乌尔·比勒 Raoul Billerey
       西蒙德拉卜若思 Simon de La Brosse
       Armand Barbault Armand Barbault
       Alain Jomy Alain Jomy
       阿尔贝·于尔根松 Albert Jurgenson
       多米尼克·贝纳尔 Dominique Besnehard
       让-皮尔·科赫特·斯维尔科 Jean-Pierre Kohut-Svelko
       Jacqueline Bouchard Jacqueline Bouchard
       Bruno Herbulot Bruno Herbulot
◎简  介

  夏洛特(夏洛特·甘斯布 Charlotte Gainsbourg 饰)是一个13岁的叛逆少女,对于她来说,生活布满了不幸,同伴们都是不成救药的傻瓜而怙恃则是欠亨道理的无聊大人,整体上来说一切都是如此的乏善可陈,除了阿谁叫露露(Julie Glenn 饰)的总围着自己打转的傻姑娘和阿谁年长英俊的海员。                                    
                                当克拉拉(Clothilde Baudon 饰)出现在夏洛特眼前的时辰,她简直不敢相信自己的眼睛,本来这个天下上是可以有如此美丽、如此文雅、如此才华横溢的天使存在的,更重要的是,克拉拉的怙恃很是有钱,克拉拉成为了夏洛特通往空想天下的跳板。在想方设法获得了到克拉拉宅邸做客的机遇后,夏洛特对于自己的光辉未来的空想就从未停歇,可是现实并不如空想般美好,很快,一盆冷水将完全浇灭夏洛特那不切现实的空想。
  1. Video
  2. ID                                       : 2
  3. Format                                   : AVC
  4. Format/Info                              : Advanced Video Codec
  5. Format profile                           : [email protected]
  6. Format settings                          : CABAC / 4 Ref Frames
  7. Format settings, CABAC                   : Yes
  8. Format settings, Reference frames        : 4 frames
  9. Codec ID                                 : V_MPEG4/ISO/AVC
  10. Duration                                 : 1 h 36 min
  11. Bit rate                                 : 11.6 Mb/s
  12. Width                                    : 1 792 pixels
  13. Height                                   : 1 080 pixels
  14. Display aspect ratio                     : 5:3
  15. Frame rate mode                          : Constant
  16. Frame rate                               : 24.000 FPS
  17. Color space                              : YUV
  18. Chroma subsampling                       : 4:2:0
  19. Bit depth                                : 8 bits
  20. Scan type                                : Progressive
  21. Bits/(Pixel*Frame)                       : 0.251
  22. Stream size                              : 7.81 GiB (99%)
  23. Writing library                          : x264 core 142 r2479 dd79a61
  24. Encoding settings                        : cabac=1 / ref=4 / deblock=1:-3:-3 / analyse=0x3:0x133 / me=umh / subme=10 / psy=1 / psy_rd=1.00:0.00 / mixed_ref=1 / me_range=32 / chroma_me=1 / trellis=2 / 8x8dct=1 / cqm=0 / deadzone=21,11 / fast_pskip=0 / chroma_qp_offset=-2 / threads=6 / lookahead_threads=1 / sliced_threads=0 / nr=0 / decimate=0 / interlaced=0 / bluray_compat=0 / constrained_intra=0 / bframes=16 / b_pyramid=2 / b_adapt=2 / b_bias=0 / direct=3 / weightb=1 / open_gop=0 / weightp=2 / keyint=240 / keyint_min=24 / scenecut=40 / intra_refresh=0 / rc_lookahead=60 / rc=crf / mbtree=0 / crf=21.0 / qcomp=0.60 / qpmin=0 / qpmax=69 / qpstep=4 / vbv_maxrate=62500 / vbv_bufsize=78125 / crf_max=0.0 / nal_hrd=none / filler=0 / ip_ratio=1.40 / pb_ratio=1.30 / aq=2:1.00
  25. Default                                  : Yes
  26. Forced                                   : No
  27. Color range                              : Limited
  28. Color primaries                          : BT.709
  29. Transfer characteristics                 : BT.709
  30. Matrix coefficients                      : BT.709
  31. Audio
  32. ID                                       : 3
  33. Format                                   : AAC LC
  34. Format/Info                              : Advanced Audio Codec Low Complexity
  35. Codec ID                                 : A_AAC-2
  36. Duration                                 : 1 h 36 min
  37. Bit rate                                 : 153 kb/s
  38. Channel(s)                               : 2 channels
  39. Channel layout                           : L R
  40. Sampling rate                            : 48.0 kHz
  41. Frame rate                               : 46.875 FPS (1024 SPF)
  42. Compression mode                         : Lossy
  43. Delay relative to video                  : -83 ms
  44. Stream size                              : 105 MiB (1%)
  45. Language                                 : French
  46. Default                                  : Yes
  47. Forced                                   : No
  48. Text #1
  49. ID                                       : 1
  50. Format                                   : UTF-8
  51. Codec ID                                 : S_TEXT/UTF8
  52. Codec ID/Info                            : UTF-8 Plain Text
  53. Duration                                 : 1 h 32 min
  54. Bit rate                                 : 51 b/s
  55. Frame rate                               : 0.191 FPS
  56. Count of elements                        : 1062
  57. Stream size                              : 35.1 KiB (0%)
  58. Language                                 : French
  59. Default                                  : No
  60. Forced                                   : No
  61. Text #2
  62. ID                                       : 4
  63. Format                                   : UTF-8
  64. Codec ID                                 : S_TEXT/UTF8
  65. Codec ID/Info                            : UTF-8 Plain Text
  66. Duration                                 : 1 h 30 min
  67. Bit rate                                 : 40 b/s
  68. Frame rate                               : 0.174 FPS
  69. Count of elements                        : 947
  70. Stream size                              : 27.1 KiB (0%)
  71. Language                                 : English
  72. Default                                  : Yes
  73. Forced                                   : No
  74. Menu
  75. 00:00:00.000                             : :Chapter 1
  76. 00:08:16.375                             : :Chapter 2
  77. 00:15:32.167                             : :Chapter 3
  78. 00:21:35.792                             : :Chapter 4
  79. 00:29:19.208                             : :Chapter 5
  80. 00:36:24.958                             : :Chapter 6
  81. 00:45:24.625                             : :Chapter 7
  82. 00:52:57.750                             : :Chapter 8
  83. 00:57:57.792                             : :Chapter 9
  84. 01:05:19.375                             : :Chapter 10
  85. 01:19:33.375                             : :Chapter 11
  86. 01:25:18.958                             : :Chapter 12
复制代码




                                       
                                       

                                       
                                       
                                       




回复

使用道具 举报

懒得打字嘛,点击右侧快捷回复 【右侧内容,后台自定义】
您需要登录后才可以回帖 登录 | 立即加入

本版积分规则

Archiver|小黑屋| 蓝光电影网 |网站地图

Copyright © 2021 Comsenz Inc. Powered by 蓝光电影网

蓝光电影网

本站内容由用户自主分享和转载自互联网,转载目的在于传递更多信息,并不代表本网赞同其观点和对其真实性负责。

如有侵权、违反国家法律政策行为,请联系我们,我们会第一时间及时清除和处理!

举报反馈邮箱:[email protected]

快速回复 返回顶部 返回列表