找回密码

蓝光电影网

查看: 46|回复: 0

[剧情] 山火 Flame.In.Valley.1967.KOREAN.1080p.BluRay.x264.FLAC.1.0-HANDJOB 5.02GB

[复制链接]
蓝光币
886
发表于 2022-7-29 22:38:36 | 显示全部楼层 |阅读模式


◎标  题 山火
◎译  名 Flame in the Valley / Burning Mountain
◎片  名 산불
◎年  代 1967
◎产  地 韩国
◎类  别 剧情
◎语  言 韩语
◎上映日期 1967-04-22(韩国)
◎IMDb评分 6.4/10 (29人评价)
◎IMDb链接 https://www.imdb.com/title/tt0328354/
◎豆瓣链接 https://movie.douban.com/subject/4263275/
◎片  长 80分钟
◎导  演 金洙容 Soo-yong Kim
◎演  员 申荣均 Yeong-gyun Shin
       朱曾女 Jeung-nyeo Ju
       都琴峰 Geum-bong Do
◎简  介

  韩国战争竣事以后小白山脈天王峰脚底下的一个村子,汉子们由于战争而死去使得这里酿成了孀妇村。有一天智异山共军奎福(申荣均 饰)来到了村子,詹礼(朱宗女 饰)帮助他隐藏起来,二人的心也自但是然地走近了。未几关于来了一个汉子的消息起头在村子里处处传开了,两人的关系终极被跟踪詹礼的司月(度金凤 饰)所发现,她以密告奎福来威胁,使得奎福和她发生关系。未几以后剿灭共匪的扫荡展开了,奎福存身的林子却忽然燃起了山火,为了躲避山火而逃出森林的奎福终极被子弹击中身亡。
  1. Video
  2. ID                                       : 1
  3. Format                                   : AVC
  4. Format/Info                              : Advanced Video Codec
  5. Format profile                           : [email protected]
  6. Format settings                          : CABAC / 5 Ref Frames
  7. Format settings, CABAC                   : Yes
  8. Format settings, Reference frames        : 5 frames
  9. Codec ID                                 : V_MPEG4/ISO/AVC
  10. Duration                                 : 1 h 19 min
  11. Bit rate                                 : 8 635 kb/s
  12. Width                                    : 1 920 pixels
  13. Height                                   : 804 pixels
  14. Display aspect ratio                     : 2.40:1
  15. Frame rate mode                          : Constant
  16. Frame rate                               : 24.000 FPS
  17. Color space                              : YUV
  18. Chroma subsampling                       : 4:2:0
  19. Bit depth                                : 8 bits
  20. Scan type                                : Progressive
  21. Bits/(Pixel*Frame)                       : 0.233
  22. Stream size                              : 4.82 GiB (96%)
  23. Writing library                          : x264 core 164 r3065 ae03d92
  24. Encoding settings                        : cabac=1 / ref=5 / deblock=1:-3:-3 / analyse=0x3:0x133 / me=umh / subme=10 / psy=1 / psy_rd=1.00:0.00 / mixed_ref=1 / me_range=32 / chroma_me=1 / trellis=2 / 8x8dct=1 / cqm=0 / deadzone=21,11 / fast_pskip=0 / chroma_qp_offset=-2 / threads=25 / lookahead_threads=6 / sliced_threads=0 / nr=0 / decimate=0 / interlaced=0 / bluray_compat=0 / constrained_intra=0 / bframes=16 / b_pyramid=2 / b_adapt=2 / b_bias=0 / direct=3 / weightb=1 / open_gop=0 / weightp=2 / keyint=240 / keyint_min=24 / scenecut=40 / intra_refresh=0 / rc_lookahead=60 / rc=crf / mbtree=0 / crf=20.0 / qcomp=0.60 / qpmin=0 / qpmax=69 / qpstep=4 / vbv_maxrate=62500 / vbv_bufsize=78125 / crf_max=0.0 / nal_hrd=none / filler=0 / ip_ratio=1.40 / pb_ratio=1.30 / aq=2:1.00
  25. Default                                  : Yes
  26. Forced                                   : No
  27. Color range                              : Limited
  28. Color primaries                          : BT.709
  29. Transfer characteristics                 : BT.709
  30. Matrix coefficients                      : BT.709
  31. Audio #1
  32. ID                                       : 2
  33. Format                                   : FLAC
  34. Format/Info                              : Free Lossless Audio Codec
  35. Codec ID                                 : A_FLAC
  36. Duration                                 : 1 h 19 min
  37. Bit rate mode                            : Variable
  38. Bit rate                                 : 231 kb/s
  39. Channel(s)                               : 1 channel
  40. Channel layout                           : C
  41. Sampling rate                            : 48.0 kHz
  42. Frame rate                               : 11.719 FPS (4096 SPF)
  43. Bit depth                                : 16 bits
  44. Compression mode                         : Lossless
  45. Stream size                              : 132 MiB (3%)
  46. Writing library                          : libFLAC 1.2.1 (UTC 2007-09-17)
  47. Language                                 : Korean
  48. Default                                  : Yes
  49. Forced                                   : No
  50. Audio #2
  51. ID                                       : 3
  52. Format                                   : AAC LC
  53. Format/Info                              : Advanced Audio Codec Low Complexity
  54. Codec ID                                 : A_AAC-2
  55. Duration                                 : 1 h 19 min
  56. Bit rate                                 : 96.0 kb/s
  57. Channel(s)                               : 2 channels
  58. Channel layout                           : L R
  59. Sampling rate                            : 48.0 kHz
  60. Frame rate                               : 46.875 FPS (1024 SPF)
  61. Compression mode                         : Lossy
  62. Delay relative to video                  : 9 ms
  63. Stream size                              : 54.9 MiB (1%)
  64. Title                                    : Commentary by film critic and director Chung Sung-ill
  65. Language                                 : Korean
  66. Default                                  : No
  67. Forced                                   : No
  68. Text #1
  69. ID                                       : 4
  70. Format                                   : UTF-8
  71. Codec ID                                 : S_TEXT/UTF8
  72. Codec ID/Info                            : UTF-8 Plain Text
  73. Duration                                 : 1 h 19 min
  74. Bit rate                                 : 42 b/s
  75. Frame rate                               : 0.164 FPS
  76. Count of elements                        : 781
  77. Stream size                              : 24.8 KiB (0%)
  78. Language                                 : English
  79. Default                                  : Yes
  80. Forced                                   : No
  81. Text #2
  82. ID                                       : 5
  83. Format                                   : PGS
  84. Muxing mode                              : zlib
  85. Codec ID                                 : S_HDMV/PGS
  86. Codec ID/Info                            : Picture based subtitle format used on BDs/HD-DVDs
  87. Duration                                 : 1 h 19 min
  88. Bit rate                                 : 20.1 kb/s
  89. Frame rate                               : 0.258 FPS
  90. Count of elements                        : 1229
  91. Stream size                              : 11.4 MiB (0%)
  92. Language                                 : Japanese
  93. Default                                  : No
  94. Forced                                   : No
  95. Text #3
  96. ID                                       : 6
  97. Format                                   : PGS
  98. Muxing mode                              : zlib
  99. Codec ID                                 : S_HDMV/PGS
  100. Codec ID/Info                            : Picture based subtitle format used on BDs/HD-DVDs
  101. Duration                                 : 1 h 19 min
  102. Bit rate                                 : 22.8 kb/s
  103. Frame rate                               : 0.258 FPS
  104. Count of elements                        : 1227
  105. Stream size                              : 12.9 MiB (0%)
  106. Language                                 : Korean
  107. Default                                  : No
  108. Forced                                   : No
  109. Menu
  110. 00:00:00.000                             : en:Chapter 1
  111. 00:10:40.458                             : en:Chapter 2
  112. 00:21:09.917                             : en:Chapter 3
  113. 00:26:59.542                             : en:Chapter 4
  114. 00:35:28.292                             : en:Chapter 5
  115. 00:43:31.042                             : en:Chapter 6
  116. 00:50:12.000                             : en:Chapter 7
  117. 01:02:35.875                             : en:Chapter 8
  118. 01:08:42.000                             : en:Chapter 9
  119. 01:13:10.792                             : en:Chapter 10
复制代码





                                       
                                       

                                       
                                       
                                       




回复

使用道具 举报

懒得打字嘛,点击右侧快捷回复 【右侧内容,后台自定义】
您需要登录后才可以回帖 登录 | 立即加入

本版积分规则

Archiver|小黑屋| 蓝光电影网 |网站地图

Copyright © 2021 Comsenz Inc. Powered by 蓝光电影网

蓝光电影网

本站内容由用户自主分享和转载自互联网,转载目的在于传递更多信息,并不代表本网赞同其观点和对其真实性负责。

如有侵权、违反国家法律政策行为,请联系我们,我们会第一时间及时清除和处理!

举报反馈邮箱:[email protected]

快速回复 返回顶部 返回列表