找回密码

蓝光电影网

查看: 149|回复: 0

[喜剧] 多情种 My.Little.Sentimental.Friend.1984.CHINESE.1080p.BluRay.x264.FLAC.2.0-HANDJOB 8.03GB

[复制链接]
蓝光币
1022
发表于 2022-7-29 22:42:15 | 显示全部楼层 |阅读模式


◎标  题 多情种
◎译  名 My Little Sentimental Friend
◎片  名 多情種
◎年  代 1984
◎产  地 中国香港
◎类  别 笑剧 / 恋爱
◎语  言 粤语 / 汉语普通话
◎上映日期 1984-10-18(中国香港)
◎IMDb评分 5.3/10 (25人评价)
◎IMDb链接 https://www.imdb.com/title/tt0087184/
◎豆瓣评分 6.0/10 (391人评价)
◎豆瓣链接 https://movie.douban.com/subject/2138569/
◎片  长 96分钟
◎导  演 沈月明 Yueming Shen
◎演  员 曾志伟 Eric Tsang
       林良蕙 Rowena Lam
       吕良伟 Ray Lui
       林建明 Meg Lam
       罗浩楷 Ho Kai Law
       简而清 Yee Ching Gan
       黎安儿 On Yee Lai
       欧阳莎菲 Sha-fei Ouyang
       谭咏麟 Alan Tam
       曹达华 Tat-wah Cho
       董骠 Bill Tung
       吴浣仪 Yuen Yee Ng
       林敏怡 Man Yee Lam
       金霏 Tina Fei Chin
       陆文华 Man-Wah Luk
       黄百鸣 Raymond Wong
       林敏怡 Man Yee Lam
       梁志明 Chi-Ming Leung
       蒋国权 Kwang Che Ching
       张叔平 William Chang
       赵良骏 Samson Chiu
◎简  介

  洛奇是管弦乐团的三角敲击手。在成婚一周年的纪念日,他太太离家出走。好朋友查理及其同居女友妙芬决议为洛奇先容女朋友,以填补其空虚的心灵。在一次交通意外,妙芬受伤留医。查理为公干远游,妙芬对他重利轻离的行为非常不满,反而洛奇悉心庇护,使两人友谊酿成恋爱……
  1. Video
  2. ID                                       : 1
  3. Format                                   : AVC
  4. Format/Info                              : Advanced Video Codec
  5. Format profile                           : [email protected]
  6. Format settings                          : CABAC / 4 Ref Frames
  7. Format settings, CABAC                   : Yes
  8. Format settings, Reference frames        : 4 frames
  9. Codec ID                                 : V_MPEG4/ISO/AVC
  10. Duration                                 : 1 h 36 min
  11. Bit rate                                 : 11.6 Mb/s
  12. Width                                    : 1 916 pixels
  13. Height                                   : 1 036 pixels
  14. Display aspect ratio                     : 1.85:1
  15. Frame rate mode                          : Constant
  16. Frame rate                               : 24.000 FPS
  17. Color space                              : YUV
  18. Chroma subsampling                       : 4:2:0
  19. Bit depth                                : 8 bits
  20. Scan type                                : Progressive
  21. Bits/(Pixel*Frame)                       : 0.244
  22. Stream size                              : 7.81 GiB (97%)
  23. Writing library                          : x264 core 164 r3065 ae03d92
  24. Encoding settings                        : cabac=1 / ref=4 / deblock=1:-3:-3 / analyse=0x3:0x133 / me=umh / subme=10 / psy=1 / psy_rd=1.00:0.00 / mixed_ref=1 / me_range=32 / chroma_me=1 / trellis=2 / 8x8dct=1 / cqm=0 / deadzone=21,11 / fast_pskip=0 / chroma_qp_offset=-2 / threads=32 / lookahead_threads=8 / sliced_threads=0 / nr=0 / decimate=0 / interlaced=0 / bluray_compat=0 / constrained_intra=0 / bframes=16 / b_pyramid=2 / b_adapt=2 / b_bias=0 / direct=3 / weightb=1 / open_gop=0 / weightp=2 / keyint=240 / keyint_min=24 / scenecut=40 / intra_refresh=0 / rc_lookahead=60 / rc=crf / mbtree=0 / crf=17.8 / qcomp=0.60 / qpmin=0 / qpmax=69 / qpstep=4 / vbv_maxrate=62500 / vbv_bufsize=78125 / crf_max=0.0 / nal_hrd=none / filler=0 / ip_ratio=1.40 / pb_ratio=1.30 / aq=2:1.00
  25. Default                                  : Yes
  26. Forced                                   : No
  27. Color range                              : Limited
  28. Color primaries                          : BT.709
  29. Transfer characteristics                 : BT.709
  30. Matrix coefficients                      : BT.709
  31. Audio
  32. ID                                       : 2
  33. Format                                   : FLAC
  34. Format/Info                              : Free Lossless Audio Codec
  35. Codec ID                                 : A_FLAC
  36. Duration                                 : 1 h 36 min
  37. Bit rate mode                            : Variable
  38. Bit rate                                 : 302 kb/s
  39. Channel(s)                               : 2 channels
  40. Channel layout                           : L R
  41. Sampling rate                            : 48.0 kHz
  42. Frame rate                               : 11.719 FPS (4096 SPF)
  43. Bit depth                                : 16 bits
  44. Compression mode                         : Lossless
  45. Stream size                              : 208 MiB (3%)
  46. Title                                    : Cantonese
  47. Writing library                          : libFLAC 1.2.1 (UTC 2007-09-17)
  48. Language                                 : Chinese
  49. Default                                  : Yes
  50. Forced                                   : No
  51. Text #1
  52. ID                                       : 3
  53. Format                                   : UTF-8
  54. Codec ID                                 : S_TEXT/UTF8
  55. Codec ID/Info                            : UTF-8 Plain Text
  56. Duration                                 : 1 h 34 min
  57. Bit rate                                 : 61 b/s
  58. Frame rate                               : 0.242 FPS
  59. Count of elements                        : 1373
  60. Stream size                              : 42.3 KiB (0%)
  61. Language                                 : English
  62. Default                                  : Yes
  63. Forced                                   : No
  64. Text #2
  65. ID                                       : 4
  66. Format                                   : PGS
  67. Muxing mode                              : zlib
  68. Codec ID                                 : S_HDMV/PGS
  69. Codec ID/Info                            : Picture based subtitle format used on BDs/HD-DVDs
  70. Duration                                 : 1 h 34 min
  71. Bit rate                                 : 40.3 kb/s
  72. Frame rate                               : 0.481 FPS
  73. Count of elements                        : 2743
  74. Stream size                              : 27.4 MiB (0%)
  75. Title                                    : Chinese Simplified
  76. Language                                 : Chinese
  77. Default                                  : No
  78. Forced                                   : No
  79. Text #3
  80. ID                                       : 5
  81. Format                                   : PGS
  82. Muxing mode                              : zlib
  83. Codec ID                                 : S_HDMV/PGS
  84. Codec ID/Info                            : Picture based subtitle format used on BDs/HD-DVDs
  85. Duration                                 : 1 h 34 min
  86. Bit rate                                 : 40.9 kb/s
  87. Frame rate                               : 0.480 FPS
  88. Count of elements                        : 2733
  89. Stream size                              : 27.8 MiB (0%)
  90. Title                                    : Chinese Traditional
  91. Language                                 : Chinese
  92. Default                                  : No
  93. Forced                                   : No
  94. Menu
  95. 00:00:00.000                             : :第 01 章
  96. 00:07:10.417                             : :第 02 章
  97. 00:16:09.167                             : :第 03 章
  98. 00:26:34.375                             : :第 04 章
  99. 00:32:27.708                             : :第 05 章
  100. 00:40:08.375                             : :第 06 章
  101. 00:48:39.417                             : :第 07 章
  102. 00:55:32.667                             : :第 08 章
  103. 01:03:23.083                             : :第 09 章
  104. 01:13:33.875                             : :第 10 章
  105. 01:19:55.208                             : :第 11 章
  106. 01:27:55.292                             : :第 12 章
复制代码




                                       
                                       

                                       
                                       
                                       




回复

使用道具 举报

懒得打字嘛,点击右侧快捷回复 【右侧内容,后台自定义】
您需要登录后才可以回帖 登录 | 立即加入

本版积分规则

Archiver|小黑屋| 蓝光电影网 |网站地图

Copyright © 2021 Comsenz Inc. Powered by 蓝光电影网

蓝光电影网

本站内容由用户自主分享和转载自互联网,转载目的在于传递更多信息,并不代表本网赞同其观点和对其真实性负责。

如有侵权、违反国家法律政策行为,请联系我们,我们会第一时间及时清除和处理!

举报反馈邮箱:[email protected]

快速回复 返回顶部 返回列表