找回密码

蓝光电影网

查看: 56|回复: 1

[其他] 巴斯克维尔的猎犬 Der.Hund.von.Baskerville.1929.1080p.BluRay.x264.FLAC2.0-HANDJOB 5.65GB

[复制链接]
蓝光币
886
发表于 2022-7-29 23:13:11 | 显示全部楼层 |阅读模式
[img][/img]

◎标  题 巴斯克维尔的猎犬
◎片  名 Der Hund von Baskerville
◎年  代 1929
◎产  地 德国
◎类  别 悬疑 / 可骇 / 犯罪
◎语  言 德语
◎上映日期 1929-08-28(德国)
◎IMDb评分 6.8/10 (181人评价)
◎IMDb链接 https://www.imdb.com/title/tt0020007/
◎豆瓣链接 https://movie.douban.com/subject/5075957/
◎片  长 66分钟
◎导  演 理查德·奥斯瓦尔德 Richard Oswald
◎编  剧 阿瑟·柯南·道尔 Arthur Conan Doyle
       Georg C. Klaren Georg C. Klaren
◎演  员 Alma Taylor Alma Taylor
       Alexander Murski Alexander Murski
       Livio Pavanelli Livio Pavanelli
       Robert Garrison Robert Garrison
       Jaro Fürth Jaro Fürth
       Carla Bartheel Carla Bartheel
       Betty Bird Betty Bird
       Valy Arnheim Valy Arnheim
       弗里茨·拉斯普 Fritz Rasp
       卡莱尔·布莱克韦尔 Carlyle Blackwell
       Frederik Fuglsang Frederik Fuglsang
       Gustav A. Knauer Gustav A. Knauer
       Willy Schiller Willy Schiller
  1. Video
  2. ID                                       : 1
  3. Format                                   : AVC
  4. Format/Info                              : Advanced Video Codec
  5. Format profile                           : [email protected]
  6. Format settings                          : CABAC / 5 Ref Frames
  7. Format settings, CABAC                   : Yes
  8. Format settings, Reference frames        : 5 frames
  9. Codec ID                                 : V_MPEG4/ISO/AVC
  10. Duration                                 : 1 h 5 min
  11. Bit rate                                 : 11.7 Mb/s
  12. Width                                    : 1 386 pixels
  13. Height                                   : 1 036 pixels
  14. Display aspect ratio                     : 4:3
  15. Frame rate mode                          : Constant
  16. Frame rate                               : 23.976 (24000/1001/189150) FPS
  17. Color space                              : YUV
  18. Chroma subsampling                       : 4:2:0
  19. Bit depth                                : 8 bits
  20. Scan type                                : Progressive
  21. Bits/(Pixel*Frame)                       : 0.340
  22. Stream size                              : 5.39 GiB (95%)
  23. Writing library                          : x264 core 164 r3065 ae03d92
  24. Encoding settings                        : cabac=1 / ref=5 / deblock=1:-3:-3 / analyse=0x3:0x133 / me=umh / subme=10 / psy=1 / psy_rd=1.00:0.00 / mixed_ref=1 / me_range=32 / chroma_me=1 / trellis=2 / 8x8dct=1 / cqm=0 / deadzone=21,11 / fast_pskip=0 / chroma_qp_offset=-2 / threads=9 / lookahead_threads=2 / sliced_threads=0 / nr=0 / decimate=0 / interlaced=0 / bluray_compat=0 / constrained_intra=0 / bframes=16 / b_pyramid=2 / b_adapt=2 / b_bias=0 / direct=3 / weightb=1 / open_gop=0 / weightp=2 / keyint=240 / keyint_min=24 / scenecut=40 / intra_refresh=0 / rc_lookahead=60 / rc=crf / mbtree=0 / crf=18.5 / qcomp=0.60 / qpmin=0 / qpmax=69 / qpstep=4 / vbv_maxrate=62500 / vbv_bufsize=78125 / crf_max=0.0 / nal_hrd=none / filler=0 / ip_ratio=1.40 / pb_ratio=1.30 / aq=2:1.00
  25. Default                                  : Yes
  26. Forced                                   : No
  27. Color range                              : Limited
  28. Color primaries                          : BT.709
  29. Transfer characteristics                 : BT.709
  30. Matrix coefficients                      : BT.709
  31. Audio
  32. ID                                       : 2
  33. Format                                   : FLAC
  34. Format/Info                              : Free Lossless Audio Codec
  35. Codec ID                                 : A_FLAC
  36. Duration                                 : 1 h 5 min
  37. Bit rate mode                            : Variable
  38. Bit rate                                 : 562 kb/s
  39. Channel(s)                               : 2 channels
  40. Channel layout                           : L R
  41. Sampling rate                            : 48.0 kHz
  42. Frame rate                               : 11.719 FPS (4096 SPF)
  43. Bit depth                                : 16 bits
  44. Compression mode                         : Lossless
  45. Stream size                              : 265 MiB (5%)
  46. Writing library                          : libFLAC 1.3.4 (UTC 2022-02-20)
  47. Default                                  : Yes
  48. Forced                                   : No
  49. Text #1
  50. ID                                       : 3
  51. Format                                   : UTF-8
  52. Codec ID                                 : S_TEXT/UTF8
  53. Codec ID/Info                            : UTF-8 Plain Text
  54. Duration                                 : 1 h 5 min
  55. Bit rate                                 : 15 b/s
  56. Frame rate                               : 0.044 FPS
  57. Count of elements                        : 171
  58. Stream size                              : 7.38 KiB (0%)
  59. Language                                 : English
  60. Default                                  : No
  61. Forced                                   : No
  62. Text #2
  63. ID                                       : 4
  64. Format                                   : UTF-8
  65. Codec ID                                 : S_TEXT/UTF8
  66. Codec ID/Info                            : UTF-8 Plain Text
  67. Duration                                 : 1 h 5 min
  68. Bit rate                                 : 17 b/s
  69. Frame rate                               : 0.046 FPS
  70. Count of elements                        : 182
  71. Stream size                              : 8.57 KiB (0%)
  72. Language                                 : Polish
  73. Default                                  : No
  74. Forced                                   : No
  75. Menu
  76. 00:00:00.000                             : :Capítulo 01
  77. 00:04:50.749                             : :Capítulo 02
  78. 00:08:17.414                             : :Capítulo 03
  79. 00:14:43.883                             : :Capítulo 04
  80. 00:19:19.575                             : :Capítulo 05
  81. 00:22:06.242                             : :Capítulo 06
  82. 00:28:00.637                             : :Capítulo 07
  83. 00:33:48.944                             : :Capítulo 08
  84. 00:39:33.872                             : :Capítulo 09
  85. 00:45:17.215                             : :Capítulo 10
  86. 00:53:12.189                             : :Capítulo 11
  87. 00:56:43.400                             : :Capítulo 12
  88. 01:00:32.921                             : :Capítulo 13
复制代码






                                       
                                       

                                       
                                       
                                       




回复

使用道具 举报

蓝光币
116
发表于 2022-7-30 10:22:10 | 显示全部楼层

楼主太厉害了!楼主,电影应该很好看我觉得蓝光电影网真是个好地方!
回复 支持 反对

使用道具 举报

懒得打字嘛,点击右侧快捷回复 【右侧内容,后台自定义】
您需要登录后才可以回帖 登录 | 立即加入

本版积分规则

Archiver|小黑屋| 蓝光电影网 |网站地图

Copyright © 2021 Comsenz Inc. Powered by 蓝光电影网

蓝光电影网

本站内容由用户自主分享和转载自互联网,转载目的在于传递更多信息,并不代表本网赞同其观点和对其真实性负责。

如有侵权、违反国家法律政策行为,请联系我们,我们会第一时间及时清除和处理!

举报反馈邮箱:[email protected]

快速回复 返回顶部 返回列表