找回密码

蓝光电影网

查看: 60|回复: 0

[惊悚] 敏捷的杰克 Jack.Be.Nimble.1993.1080p.BluRay.x264.DD5.1-HANDJOB 7.03GB

[复制链接]
蓝光币
894
发表于 2022-7-29 23:19:23 | 显示全部楼层 |阅读模式
[img][/img]

◎标  题 灵敏的杰克
◎片  名 Jack Be Nimble
◎年  代 1993
◎产  地 新西兰
◎类  别 惊悚 / 可骇
◎语  言 英语
◎上映日期 1993
◎IMDb评分 6.1/10 (450人评价)
◎IMDb链接 https://www.imdb.com/title/tt0107242/
◎豆瓣链接 https://movie.douban.com/subject/4018749/
◎片  长 UK: 95 分钟
◎导  演 加思·麦克斯韦 Garth Maxwell
◎编  剧 加思·麦克斯韦 Garth Maxwell
◎演  员 Amy Morrison Amy Morrison
       Bridget Armstrong Bridget Armstrong
       Sarah Smuts-Kennedy Sarah Smuts-Kennedy
       伊丽莎白·霍桑 Elizabeth Hawthorne
       薇姬·浩顿 Vicky Haughton
       布鲁诺·劳伦斯 Bruno Lawrence
       Victoria Spence Victoria Spence
       Celia Nicholson Celia Nicholson
       亚历克西斯·阿奎特 Alexis Arquette
       John Barnett John Barnett
       Murray Newey Murray Newey
       Jonathan Dowling Jonathan Dowling
       Chris Neal Chris Neal
       Donald Duncan Donald Duncan
       约翰·吉尔伯特 John Gilbert
       格兰特·梅杰 Grant Major
       恩吉拉·迪克森 Ngila Dickson
       德布拉·伊斯特 Debra East
◎简  介

  Jack and Dora, abandoned by their parents as babies, are desperate to find each other after years of adoption. Jack's young life has been spent with a sadistic family. Dora, whose life has been somewhat better, has developed extra-sensory powers which tell her that Jack's in danger and drives her to search for him.
  1. Video
  2. ID                                       : 1
  3. Format                                   : AVC
  4. Format/Info                              : Advanced Video Codec
  5. Format profile                           : [email protected]
  6. Format settings                          : CABAC / 4 Ref Frames
  7. Format settings, CABAC                   : Yes
  8. Format settings, Reference frames        : 4 frames
  9. Codec ID                                 : V_MPEG4/ISO/AVC
  10. Duration                                 : 1 h 35 min
  11. Bit rate                                 : 9 750 kb/s
  12. Width                                    : 1 920 pixels
  13. Height                                   : 1 036 pixels
  14. Display aspect ratio                     : 1.85:1
  15. Frame rate mode                          : Constant
  16. Frame rate                               : 23.976 (24000/1001/189150) FPS
  17. Color space                              : YUV
  18. Chroma subsampling                       : 4:2:0
  19. Bit depth                                : 8 bits
  20. Scan type                                : Progressive
  21. Bits/(Pixel*Frame)                       : 0.204
  22. Stream size                              : 6.54 GiB (93%)
  23. Writing library                          : x264 core 164 r3065 ae03d92
  24. Encoding settings                        : cabac=1 / ref=4 / deblock=1:-3:-3 / analyse=0x3:0x133 / me=umh / subme=10 / psy=1 / psy_rd=1.00:0.00 / mixed_ref=1 / me_range=32 / chroma_me=1 / trellis=2 / 8x8dct=1 / cqm=0 / deadzone=21,11 / fast_pskip=0 / chroma_qp_offset=-2 / threads=32 / lookahead_threads=8 / sliced_threads=0 / nr=0 / decimate=0 / interlaced=0 / bluray_compat=0 / constrained_intra=0 / bframes=16 / b_pyramid=2 / b_adapt=2 / b_bias=0 / direct=3 / weightb=1 / open_gop=0 / weightp=2 / keyint=240 / keyint_min=24 / scenecut=40 / intra_refresh=0 / rc_lookahead=60 / rc=crf / mbtree=0 / crf=19.0 / qcomp=0.60 / qpmin=0 / qpmax=69 / qpstep=4 / vbv_maxrate=62500 / vbv_bufsize=78125 / crf_max=0.0 / nal_hrd=none / filler=0 / ip_ratio=1.40 / pb_ratio=1.30 / aq=2:1.00
  25. Default                                  : Yes
  26. Forced                                   : No
  27. Color range                              : Limited
  28. Color primaries                          : BT.709
  29. Transfer characteristics                 : BT.709
  30. Matrix coefficients                      : BT.709
  31. Audio #1
  32. ID                                       : 2
  33. Format                                   : AC-3
  34. Format/Info                              : Audio Coding 3
  35. Commercial name                          : Dolby Digital
  36. Codec ID                                 : A_AC3
  37. Duration                                 : 1 h 35 min
  38. Bit rate mode                            : Constant
  39. Bit rate                                 : 640 kb/s
  40. Channel(s)                               : 6 channels
  41. Channel layout                           : L R C LFE Ls Rs
  42. Sampling rate                            : 48.0 kHz
  43. Frame rate                               : 31.250 FPS (1536 SPF)
  44. Compression mode                         : Lossy
  45. Stream size                              : 439 MiB (6%)
  46. Language                                 : English
  47. Service kind                             : Complete Main
  48. Default                                  : Yes
  49. Forced                                   : No
  50. Audio #2
  51. ID                                       : 3
  52. Format                                   : AAC LC
  53. Format/Info                              : Advanced Audio Codec Low Complexity
  54. Codec ID                                 : A_AAC-2
  55. Duration                                 : 1 h 35 min
  56. Bit rate                                 : 96.0 kb/s
  57. Channel(s)                               : 2 channels
  58. Channel layout                           : L R
  59. Sampling rate                            : 48.0 kHz
  60. Frame rate                               : 46.875 FPS (1024 SPF)
  61. Compression mode                         : Lossy
  62. Delay relative to video                  : 9 ms
  63. Stream size                              : 65.9 MiB (1%)
  64. Title                                    : Commentary by director Garth Maxwell and film critic Dominic Corry
  65. Language                                 : English
  66. Default                                  : No
  67. Forced                                   : No
  68. Text #1
  69. ID                                       : 4
  70. Format                                   : UTF-8
  71. Codec ID                                 : S_TEXT/UTF8
  72. Codec ID/Info                            : UTF-8 Plain Text
  73. Duration                                 : 1 h 33 min
  74. Bit rate                                 : 32 b/s
  75. Frame rate                               : 0.178 FPS
  76. Count of elements                        : 1004
  77. Stream size                              : 22.6 KiB (0%)
  78. Title                                    : Hard of hearing
  79. Language                                 : English
  80. Default                                  : No
  81. Forced                                   : No
  82. Text #2
  83. ID                                       : 5
  84. Format                                   : PGS
  85. Muxing mode                              : zlib
  86. Codec ID                                 : S_HDMV/PGS
  87. Codec ID/Info                            : Picture based subtitle format used on BDs/HD-DVDs
  88. Duration                                 : 1 h 35 min
  89. Bit rate                                 : 16.0 kb/s
  90. Frame rate                               : 0.282 FPS
  91. Count of elements                        : 1619
  92. Stream size                              : 11.0 MiB (0%)
  93. Language                                 : Spanish
  94. Default                                  : No
  95. Forced                                   : No
  96. Menu
  97. 00:00:00.000                             : en:Chapter 1
  98. 00:12:28.581                             : en:Chapter 2
  99. 00:24:38.185                             : en:Chapter 3
  100. 00:35:46.519                             : en:Chapter 4
  101. 00:47:35.853                             : en:Chapter 5
  102. 01:00:33.672                             : en:Chapter 6
  103. 01:11:50.973                             : en:Chapter 7
  104. 01:23:42.518                             : en:Chapter 8
复制代码





                                       
                                       

                                       
                                       
                                       




回复

使用道具 举报

懒得打字嘛,点击右侧快捷回复 【右侧内容,后台自定义】
您需要登录后才可以回帖 登录 | 立即加入

本版积分规则

Archiver|小黑屋| 蓝光电影网 |网站地图

Copyright © 2021 Comsenz Inc. Powered by 蓝光电影网

蓝光电影网

本站内容由用户自主分享和转载自互联网,转载目的在于传递更多信息,并不代表本网赞同其观点和对其真实性负责。

如有侵权、违反国家法律政策行为,请联系我们,我们会第一时间及时清除和处理!

举报反馈邮箱:[email protected]

快速回复 返回顶部 返回列表