找回密码

蓝光电影网

查看: 201|回复: 3

[UHD.HEVC] 暖暖内含光 Eternal.Sunshine.of.the.Spotless.Mind.2004.2160p.BluRay.REMUX.HEVC.DTS-HD.MA.5.1-FGT 70.20GB

[复制链接]
蓝光币
1020
发表于 2022-7-30 09:18:16 | 显示全部楼层 |阅读模式


◎标  题 暖暖内含光
◎译  名 暧暧内含光 / 美丽心灵的永久阳光 / 纯洁心灵的永久阳光 / 无瑕心灵的永久阳光 / 无痛失恋(港) / 王牌朋友(台) / 灵光乍现 / 忘记你我做不到(豆友译名)
◎片  名 Eternal Sunshine of the Spotless Mind
◎年  代 2004
◎产  地 美国
◎类  别 剧情 / 恋爱 / 科幻
◎语  言 英语
◎上映日期 2004-03-19(美国)
◎IMDb评分 8.3/10 (957331人评价)
◎IMDb链接 https://www.imdb.com/title/tt0338013/
◎豆瓣链接 https://movie.douban.com/subject/1308777/
◎片  长 108分钟
◎标  签 恋爱 / 美国 / 文艺 / 奇异 / 心理 / 剧情 / 失忆 / 浪漫
◎简  介

    外向沉稳的约尔•巴瑞斯(金•凯瑞 饰)在一次集会中熟悉了率真随性的克莱门汀•克罗斯基(凯特•温丝莱特 饰),二人成为情侣。和普通的情侣一样,他们的日子也在甜蜜和争持中度过。                                                                      2004年情人节前夜,当约尔经心预备好礼物,为未几前一次争持找到克莱门汀道歉时,他惊奇地发现,克莱门汀底子都不记得他了。本来感动的克莱门汀受不了二人交往中争持的疾苦,到“忘情医院”,把关于约尔的记忆删除得六根清净。                                                                      约尔没法谅解克莱门汀的任性,也没法忍受落空她的疾苦,所以他也到了“忘情医院”,请求医生霍华德博士(汤姆•维尔金森 饰)消除关于克莱门汀的记忆。                                                                      记忆断根法式起头启动,约尔在自己的记忆中游走,他发现和克莱斯汀一路度过的那些时光,不管是疾苦还是甜蜜,都弥足珍贵,他并不想忘记这个自己深爱的女人。可是,法式一旦启动就没法逆转,约尔只能想尽法子把克莱斯汀藏到记忆最深的地方,那些现实中克莱斯汀原本没有出现过的时候角落,以保存这份恋爱……
  1. Video
  2. ID                                       : 1
  3. ID in the original source medium         : 4113 (0x1011)
  4. Format                                   : HEVC
  5. Format/Info                              : High Efficiency Video Coding
  6. Format profile                           : Main [email protected]@High
  7. HDR format                               : Dolby Vision, Version 1.0, dvhe.07.06, BL+EL+RPU, Blu-ray compatible / SMPTE ST 2086, HDR10 compatible
  8. Codec ID                                 : V_MPEGH/ISO/HEVC
  9. Duration                                 : 1 h 47 min
  10. Bit rate                                 : 85.0 Mb/s
  11. Width                                    : 3 840 pixels
  12. Height                                   : 2 160 pixels
  13. Display aspect ratio                     : 16:9
  14. Frame rate mode                          : Constant
  15. Frame rate                               : 24.000 FPS
  16. Color space                              : YUV
  17. Chroma subsampling                       : 4:2:0 (Type 2)
  18. Bit depth                                : 10 bits
  19. Bits/(Pixel*Frame)                       : 0.427
  20. Stream size                              : 64.0 GiB (91%)
  21. Language                                 : English
  22. Default                                  : No
  23. Forced                                   : No
  24. Color range                              : Limited
  25. Color primaries                          : BT.2020
  26. Transfer characteristics                 : PQ
  27. Matrix coefficients                      : BT.2020 non-constant
  28. Mastering display color primaries        : Display P3
  29. Mastering display luminance              : min: 0.0001 cd/m2, max: 1000 cd/m2
  30. Maximum Content Light Level              : 1090 cd/m2
  31. Maximum Frame-Average Light Level        : 206 cd/m2
  32. Original source medium                   : Blu-ray
  33. Audio #1
  34. ID                                       : 2
  35. ID in the original source medium         : 4352 (0x1100)
  36. Format                                   : DTS XLL
  37. Format/Info                              : Digital Theater Systems
  38. Commercial name                          : DTS-HD Master Audio
  39. Codec ID                                 : A_DTS
  40. Duration                                 : 1 h 47 min
  41. Bit rate mode                            : Variable
  42. Bit rate                                 : 3 595 kb/s
  43. Channel(s)                               : 6 channels
  44. Channel layout                           : C L R Ls Rs LFE
  45. Sampling rate                            : 48.0 kHz
  46. Frame rate                               : 93.750 FPS (512 SPF)
  47. Bit depth                                : 24 bits
  48. Compression mode                         : Lossless
  49. Stream size                              : 2.71 GiB (4%)
  50. Title                                    : DTS-HD MA 5.1
  51. Language                                 : English
  52. Default                                  : Yes
  53. Forced                                   : No
  54. Original source medium                   : Blu-ray
  55. Audio #2
  56. ID                                       : 3
  57. Format                                   : AC-3
  58. Format/Info                              : Audio Coding 3
  59. Commercial name                          : Dolby Digital
  60. Codec ID                                 : A_AC3
  61. Duration                                 : 1 h 47 min
  62. Bit rate mode                            : Constant
  63. Bit rate                                 : 640 kb/s
  64. Channel(s)                               : 6 channels
  65. Channel layout                           : L R C LFE Ls Rs
  66. Sampling rate                            : 48.0 kHz
  67. Frame rate                               : 31.250 FPS (1536 SPF)
  68. Compression mode                         : Lossy
  69. Stream size                              : 493 MiB (1%)
  70. Title                                    : DD 5.1
  71. Language                                 : English
  72. Service kind                             : Complete Main
  73. Default                                  : No
  74. Forced                                   : No
  75. Audio #3
  76. ID                                       : 4
  77. ID in the original source medium         : 4353 (0x1101)
  78. Format                                   : DTS XLL
  79. Format/Info                              : Digital Theater Systems
  80. Commercial name                          : DTS-HD Master Audio
  81. Codec ID                                 : A_DTS
  82. Duration                                 : 1 h 47 min
  83. Bit rate mode                            : Variable
  84. Bit rate                                 : 1 988 kb/s
  85. Channel(s)                               : 2 channels
  86. Channel layout                           : L R
  87. Sampling rate                            : 48.0 kHz
  88. Frame rate                               : 93.750 FPS (512 SPF)
  89. Bit depth                                : 24 bits
  90. Compression mode                         : Lossless
  91. Stream size                              : 1.50 GiB (2%)
  92. Title                                    : DTS-HD MA 2.0
  93. Language                                 : English
  94. Default                                  : No
  95. Forced                                   : No
  96. Original source medium                   : Blu-ray
  97. Audio #4
  98. ID                                       : 5
  99. ID in the original source medium         : 4354 (0x1102)
  100. Format                                   : DTS XLL
  101. Format/Info                              : Digital Theater Systems
  102. Commercial name                          : DTS-HD Master Audio
  103. Codec ID                                 : A_DTS
  104. Duration                                 : 1 h 47 min
  105. Bit rate mode                            : Variable
  106. Bit rate                                 : 1 977 kb/s
  107. Channel(s)                               : 2 channels
  108. Channel layout                           : L R
  109. Sampling rate                            : 48.0 kHz
  110. Frame rate                               : 93.750 FPS (512 SPF)
  111. Bit depth                                : 24 bits
  112. Compression mode                         : Lossless
  113. Stream size                              : 1.49 GiB (2%)
  114. Title                                    : DTS-HD MA 2.0
  115. Language                                 : English
  116. Default                                  : No
  117. Forced                                   : No
  118. Original source medium                   : Blu-ray
  119. Text #1
  120. ID                                       : 6
  121. Format                                   : UTF-8
  122. Codec ID                                 : S_TEXT/UTF8
  123. Codec ID/Info                            : UTF-8 Plain Text
  124. Duration                                 : 1 h 45 min
  125. Bit rate                                 : 68 b/s
  126. Frame rate                               : 0.262 FPS
  127. Count of elements                        : 1661
  128. Stream size                              : 52.7 KiB (0%)
  129. Language                                 : English
  130. Default                                  : Yes
  131. Forced                                   : No
  132. Text #2
  133. ID                                       : 7
  134. Format                                   : UTF-8
  135. Codec ID                                 : S_TEXT/UTF8
  136. Codec ID/Info                            : UTF-8 Plain Text
  137. Duration                                 : 1 h 46 min
  138. Bit rate                                 : 77 b/s
  139. Frame rate                               : 0.276 FPS
  140. Count of elements                        : 1772
  141. Stream size                              : 60.7 KiB (0%)
  142. Title                                    : SDH
  143. Language                                 : English
  144. Default                                  : No
  145. Forced                                   : No
  146. Text #3
  147. ID                                       : 8
  148. ID in the original source medium         : 4768 (0x12A0)
  149. Format                                   : PGS
  150. Muxing mode                              : zlib
  151. Codec ID                                 : S_HDMV/PGS
  152. Codec ID/Info                            : Picture based subtitle format used on BDs/HD-DVDs
  153. Duration                                 : 1 h 46 min
  154. Bit rate                                 : 46.7 kb/s
  155. Frame rate                               : 0.556 FPS
  156. Count of elements                        : 3566
  157. Stream size                              : 35.7 MiB (0%)
  158. Language                                 : English
  159. Default                                  : No
  160. Forced                                   : No
  161. Original source medium                   : Blu-ray
  162. Menu
  163. 00:00:00.000                             : en:Chapter 01
  164. 00:10:32.125                             : en:Chapter 02
  165. 00:23:42.625                             : en:Chapter 03
  166. 00:35:12.833                             : en:Chapter 04
  167. 00:47:59.416                             : en:Chapter 05
  168. 00:59:22.416                             : en:Chapter 06
  169. 01:08:04.416                             : en:Chapter 07
  170. 01:18:35.416                             : en:Chapter 08
  171. 01:26:31.416                             : en:Chapter 09
  172. 01:36:49.750                             : en:Chapter 10
复制代码




                                       
                                       

                                       
                                       
                                       




暖暖内含光 Eternal.Sunshine.of.the.Spotless.Mind.2004.2160p.BluRay.REMUX.HEVC.DTS-HD.MA.5.1-FGT 70.20GB

Eternal.Sunshine.of.the.Spotless.Mind.2004.2160p.BluRay.REMUX.HEVC.DTS-HD.MA.5.1.torrent

88.46 KB, 下载次数: 21, 下载积分: 蓝光币 -2

回复

使用道具 举报

蓝光币
220
发表于 2022-7-30 10:14:09 | 显示全部楼层

既然你诚信诚意的推荐了,那我就勉为其难的看看吧!蓝光电影网不走平凡路。
回复 支持 反对

使用道具 举报

蓝光币
12
发表于 2022-7-31 19:36:22 | 显示全部楼层
既然你诚信诚意的推荐了,那我就勉为其难的看看吧!蓝光电影网不走平凡路。
回复 支持 反对

使用道具 举报

蓝光币
113
发表于 2022-8-15 15:04:09 | 显示全部楼层

楼主太厉害了!楼主,电影应该很好看我觉得蓝光电影网真是个好地方!
回复 支持 反对

使用道具 举报

懒得打字嘛,点击右侧快捷回复 【右侧内容,后台自定义】
您需要登录后才可以回帖 登录 | 立即加入

本版积分规则

Archiver|小黑屋| 蓝光电影网 |网站地图

Copyright © 2021 Comsenz Inc. Powered by 蓝光电影网

蓝光电影网

本站内容由用户自主分享和转载自互联网,转载目的在于传递更多信息,并不代表本网赞同其观点和对其真实性负责。

如有侵权、违反国家法律政策行为,请联系我们,我们会第一时间及时清除和处理!

举报反馈邮箱:[email protected]

快速回复 返回顶部 返回列表