找回密码

蓝光电影网

查看: 163|回复: 1

[UHD.HEVC] 别闯阴阳界 Flatliners.1990.2160p.BluRay.REMUX.HEVC.DTS-HD.MA.5.1-FGT 78.04GB

[复制链接]
蓝光币
1022
发表于 2022-7-30 16:49:01 | 显示全部楼层 |阅读模式


◎标  题 别闯阴阳界
◎译  名 灵异空间 / 脉搏探测器
◎片  名 Flatliners
◎年  代 1990
◎产  地 美国
◎类  别 剧情 / 科幻 / 惊悚
◎语  言 英语
◎上映日期 1990-08-10(美国)
◎IMDb评分 6.6/10 (84386人评价)
◎IMDb链接 https://www.imdb.com/title/tt0099582/
◎豆瓣评分 6.4/10 (1762人评价)
◎豆瓣链接 https://movie.douban.com/subject/1293140/
◎片  长 115 分钟
◎导  演 乔·舒马赫 Joel Schumacher
◎编  剧 彼得·费拉迪 Peter Filardi
◎演  员 基弗·萨瑟兰 Kiefer Sutherland
       朱莉娅·罗伯茨 Julia Roberts
       凯文·贝肯 Kevin Bacon
       威廉·鲍德温 William Baldwin
       奥利弗·普莱特 Oliver Platt
       金伯利·斯科特 Kimberly Scott
       乔舒亚·鲁杜瓦 Joshua Rudoy
       埃里克·伊根 Aeryk Egan
       霍普·戴维斯 Hope Davis
       吉姆·奥特莱比 Jim Ortlieb
       特蕾莎·托马斯 Tressa Thomas
       埃维利纳·费尔南德斯 Evelina Fernández
       彼得·费拉迪 Peter Filardi
       迈克尔·道格拉斯 Michael Douglas
       里克·比伯 Rick Bieber
       尤吉尼欧·扎内蒂 Eugenio Zanetti
       Jim Dultz Jim Dultz
       安妮·库尔贾安 Anne Kuljian
       苏珊·贝克 Susan Becker
       约兰达·塔辛 Yolanda Toussieng
       维·尼尔 Ve Neill
       格雷格·卡农 Greg Cannom
       吉姆·丹弗斯 Jim Danforth
◎标  签 惊悚 / 美国 / 心理 / 灵异 / 1990 / 科幻 / 可骇 / JuliaRoberts
◎简  介

  几个芝加哥大学从属医院高材生,在猎奇心的驱使下,策划了一场摸索灭亡奥秘的疯狂尝试。他们轮流躺在手术室里进入灭亡状态,再由其他保护的同学将自己救活。这场惊险又刺激的灭亡穿越,在一个黝黑的深夜里一步步的起头了。                                       
                                    第一个停止测试的纳尔逊(基弗·萨瑟兰 Kiefer Sutherland 饰)在“死”去以后,碰见了因他的欺侮而死去的男孩。死去活来后的纳尔逊,虽然各类感官都变得加倍灵敏和灵敏,却堕入深深的梦魇当中;接管尝试的第二小我是好色的乔(威廉·鲍德温 William Baldwin 饰),他见到了各类色情排场,而且碰见了曾凌虐过的女孩;紧接着,戴维(凯文·贝肯 Kevin Bacon 饰)也接管了尝试,他则将灭亡尝试提早到了两分钟;女门生蕾切尔(朱莉娅·罗伯茨 Julia Roberts 饰)更是在灭亡时候里,重温了父亲身杀的经过。在体验过灭亡天下以后,...
  1. Video
  2. ID                                       : 1
  3. ID in the original source medium         : 4113 (0x1011)
  4. Format                                   : HEVC
  5. Format/Info                              : High Efficiency Video Coding
  6. Format profile                           : Main [email protected]@High
  7. HDR format                               : Dolby Vision, Version 1.0, dvhe.07.06, BL+EL+RPU, Blu-ray compatible / SMPTE ST 2086, HDR10 compatible
  8. Codec ID                                 : V_MPEGH/ISO/HEVC
  9. Duration                                 : 1 h 54 min
  10. Bit rate                                 : 91.7 Mb/s
  11. Width                                    : 3 840 pixels
  12. Height                                   : 2 160 pixels
  13. Display aspect ratio                     : 16:9
  14. Frame rate mode                          : Constant
  15. Frame rate                               : 23.976 (24000/1001/189150) FPS
  16. Color space                              : YUV
  17. Chroma subsampling                       : 4:2:0 (Type 2)
  18. Bit depth                                : 10 bits
  19. Bits/(Pixel*Frame)                       : 0.461
  20. Stream size                              : 73.2 GiB (94%)
  21. Language                                 : English
  22. Default                                  : No
  23. Forced                                   : No
  24. Color range                              : Limited
  25. Color primaries                          : BT.2020
  26. Transfer characteristics                 : PQ
  27. Matrix coefficients                      : BT.2020 non-constant
  28. Mastering display color primaries        : Display P3
  29. Mastering display luminance              : min: 0.0050 cd/m2, max: 4000 cd/m2
  30. Maximum Content Light Level              : 10000 cd/m2
  31. Maximum Frame-Average Light Level        : 1335 cd/m2
  32. Original source medium                   : Blu-ray
  33. Audio #1
  34. ID                                       : 2
  35. ID in the original source medium         : 4352 (0x1100)
  36. Format                                   : DTS XLL
  37. Format/Info                              : Digital Theater Systems
  38. Commercial name                          : DTS-HD Master Audio
  39. Codec ID                                 : A_DTS
  40. Duration                                 : 1 h 54 min
  41. Bit rate mode                            : Variable
  42. Bit rate                                 : 3 743 kb/s
  43. Channel(s)                               : 6 channels
  44. Channel layout                           : C L R Ls Rs LFE
  45. Sampling rate                            : 48.0 kHz
  46. Frame rate                               : 93.750 FPS (512 SPF)
  47. Bit depth                                : 24 bits
  48. Compression mode                         : Lossless
  49. Stream size                              : 2.99 GiB (4%)
  50. Title                                    : DTS-HD MA 5.1
  51. Language                                 : English
  52. Default                                  : Yes
  53. Forced                                   : No
  54. Original source medium                   : Blu-ray
  55. Audio #2
  56. ID                                       : 3
  57. Format                                   : AC-3
  58. Format/Info                              : Audio Coding 3
  59. Commercial name                          : Dolby Digital
  60. Codec ID                                 : A_AC3
  61. Duration                                 : 1 h 54 min
  62. Bit rate mode                            : Constant
  63. Bit rate                                 : 640 kb/s
  64. Channel(s)                               : 6 channels
  65. Channel layout                           : L R C LFE Ls Rs
  66. Sampling rate                            : 48.0 kHz
  67. Frame rate                               : 31.250 FPS (1536 SPF)
  68. Compression mode                         : Lossy
  69. Stream size                              : 523 MiB (1%)
  70. Title                                    : DD 5.1
  71. Language                                 : English
  72. Service kind                             : Complete Main
  73. Default                                  : No
  74. Forced                                   : No
  75. Audio #3
  76. ID                                       : 4
  77. ID in the original source medium         : 4353 (0x1101)
  78. Format                                   : DTS XLL
  79. Format/Info                              : Digital Theater Systems
  80. Commercial name                          : DTS-HD Master Audio
  81. Codec ID                                 : A_DTS
  82. Duration                                 : 1 h 54 min
  83. Bit rate mode                            : Variable
  84. Bit rate                                 : 1 610 kb/s
  85. Channel(s)                               : 2 channels
  86. Channel layout                           : L R
  87. Sampling rate                            : 48.0 kHz
  88. Frame rate                               : 93.750 FPS (512 SPF)
  89. Bit depth                                : 24 bits
  90. Compression mode                         : Lossless
  91. Stream size                              : 1.28 GiB (2%)
  92. Title                                    : DTS-HD MA 2.0
  93. Language                                 : English
  94. Default                                  : No
  95. Forced                                   : No
  96. Original source medium                   : Blu-ray
  97. Audio #4
  98. ID                                       : 5
  99. ID in the original source medium         : 4354 (0x1102)
  100. Format                                   : AC-3
  101. Format/Info                              : Audio Coding 3
  102. Commercial name                          : Dolby Digital
  103. Codec ID                                 : A_AC3
  104. Duration                                 : 1 h 54 min
  105. Bit rate mode                            : Constant
  106. Bit rate                                 : 112 kb/s
  107. Channel(s)                               : 2 channels
  108. Channel layout                           : L R
  109. Sampling rate                            : 48.0 kHz
  110. Frame rate                               : 31.250 FPS (1536 SPF)
  111. Compression mode                         : Lossy
  112. Stream size                              : 91.5 MiB (0%)
  113. Title                                    : DD 2.0
  114. Language                                 : English
  115. Service kind                             : Complete Main
  116. Default                                  : No
  117. Forced                                   : No
  118. Original source medium                   : Blu-ray
  119. Text #1
  120. ID                                       : 6
  121. Format                                   : UTF-8
  122. Codec ID                                 : S_TEXT/UTF8
  123. Codec ID/Info                            : UTF-8 Plain Text
  124. Duration                                 : 1 h 48 min
  125. Bit rate                                 : 56 b/s
  126. Frame rate                               : 0.192 FPS
  127. Count of elements                        : 1246
  128. Stream size                              : 44.8 KiB (0%)
  129. Language                                 : English
  130. Default                                  : Yes
  131. Forced                                   : No
  132. Text #2
  133. ID                                       : 7
  134. Format                                   : UTF-8
  135. Codec ID                                 : S_TEXT/UTF8
  136. Codec ID/Info                            : UTF-8 Plain Text
  137. Duration                                 : 1 h 49 min
  138. Bit rate                                 : 60 b/s
  139. Frame rate                               : 0.212 FPS
  140. Count of elements                        : 1387
  141. Stream size                              : 48.5 KiB (0%)
  142. Title                                    : SDH
  143. Language                                 : English
  144. Default                                  : No
  145. Forced                                   : No
  146. Text #3
  147. ID                                       : 8
  148. ID in the original source medium         : 4768 (0x12A0)
  149. Format                                   : PGS
  150. Muxing mode                              : zlib
  151. Codec ID                                 : S_HDMV/PGS
  152. Codec ID/Info                            : Picture based subtitle format used on BDs/HD-DVDs
  153. Duration                                 : 1 h 49 min
  154. Bit rate                                 : 39.7 kb/s
  155. Frame rate                               : 0.427 FPS
  156. Count of elements                        : 2798
  157. Stream size                              : 31.0 MiB (0%)
  158. Language                                 : English
  159. Default                                  : No
  160. Forced                                   : No
  161. Original source medium                   : Blu-ray
  162. Menu
  163. 00:00:00.000                             : en:Chapter 01
  164. 00:09:34.240                             : en:Chapter 02
  165. 00:20:42.115                             : en:Chapter 03
  166. 00:29:04.200                             : en:Chapter 04
  167. 00:37:24.700                             : en:Chapter 05
  168. 00:45:39.987                             : en:Chapter 06
  169. 00:58:05.607                             : en:Chapter 07
  170. 01:12:35.601                             : en:Chapter 08
  171. 01:19:31.433                             : en:Chapter 09
  172. 01:26:45.783                             : en:Chapter 10
  173. 01:34:28.287                             : en:Chapter 11
  174. 01:42:10.749                             : en:Chapter 12
复制代码




                                       
                                       

                                       
                                       
                                       




回复

使用道具 举报

蓝光币
113
发表于 2022-8-15 15:01:36 | 显示全部楼层
楼主发贴辛苦了,谢谢楼主分享!我觉得蓝光电影网是注册对了!
回复 支持 反对

使用道具 举报

懒得打字嘛,点击右侧快捷回复 【右侧内容,后台自定义】
您需要登录后才可以回帖 登录 | 立即加入

本版积分规则

Archiver|小黑屋| 蓝光电影网 |网站地图

Copyright © 2021 Comsenz Inc. Powered by 蓝光电影网

蓝光电影网

本站内容由用户自主分享和转载自互联网,转载目的在于传递更多信息,并不代表本网赞同其观点和对其真实性负责。

如有侵权、违反国家法律政策行为,请联系我们,我们会第一时间及时清除和处理!

举报反馈邮箱:[email protected]

快速回复 返回顶部 返回列表