找回密码

蓝光电影网

查看: 58|回复: 1

[UHD.HEVC] 原始恐惧 Primal.2019.2160p.BluRay.REMUX.HEVC.DTS-HD.MA.5.1-FGT 42.92GB

[复制链接]
蓝光币
886
发表于 2022-7-30 16:47:32 | 显示全部楼层 |阅读模式
[img][/img]

◎标  题 原始恐惧
◎译  名 野性獵殺(台)
◎片  名 Primal
◎年  代 2019
◎产  地 美国
◎类  别 行动
◎语  言 英语
◎上映日期 2019-11-08(美国)
◎IMDb评分 4.9/10 (7516人评价)
◎IMDb链接 https://www.imdb.com/title/tt7394816/
◎豆瓣评分 5.4/10 (1284人评价)
◎豆瓣链接 https://movie.douban.com/subject/27139736/
◎片  长 97分钟
◎导  演 尼克·鲍威尔 Nick Powell
◎演  员 尼古拉斯·凯奇 Nicolas Cage
       法米克·詹森 Famke Janssen
       凯文·杜兰 Kevin Durand
       迈克尔·因佩里奥利 Michael Imperioli
       拉莫尼卡·加勒特 LaMonica Garrett
       雷·埃尔南德斯 Rey Hernandez
       汤姆·沃克 Tom Walker
       布赖恩·泰斯特 Brian Tester
       Braulio Castillo hijo Braulio Castillo hijo
◎标  签 尼古拉斯·凯奇 / 行动 / 美国 / 犯罪 / 2019 / 美国电影 / 动物 / 血腥
◎简  介

    弗兰克(尼古拉斯·凯奇 Nicolas Cage 饰)是一位大型动物禁猎区的治理员,这一次,他介入了一项很是危险的使命,那就是护送一艘载满了珍奇而又危险的大型动物的船只,从亚马逊驶往希腊。船上除了野活泼物外,还有更危险的生物存在,那就是老道而又狡猾的杀手劳夫乐(凯文·杜兰 Kevin Durand 饰)。                                                                      果不其然,在路程中,劳夫乐抛弃了负责看管他的差人,放出了关在牢笼里的凶悍而又致命的猛兽,一时之间,正艘汽船堕入了紊乱当中。身为负责人的弗兰克,不但要保证野活泼物们不被危险,也负担着船员们的人命,还要追捕危险的逃犯。
  1. Video
  2. ID                                       : 1
  3. ID in the original source medium         : 4113 (0x1011)
  4. Format                                   : HEVC
  5. Format/Info                              : High Efficiency Video Coding
  6. Format profile                           : Main [email protected]@High
  7. Codec ID                                 : V_MPEGH/ISO/HEVC
  8. Duration                                 : 1 h 36 min
  9. Bit rate                                 : 59.0 Mb/s
  10. Width                                    : 3 840 pixels
  11. Height                                   : 2 160 pixels
  12. Display aspect ratio                     : 16:9
  13. Frame rate mode                          : Constant
  14. Frame rate                               : 23.976 (24000/1001/189150) FPS
  15. Color space                              : YUV
  16. Chroma subsampling                       : 4:2:0 (Type 2)
  17. Bit depth                                : 10 bits
  18. Bits/(Pixel*Frame)                       : 0.296
  19. Stream size                              : 39.9 GiB (93%)
  20. Language                                 : English
  21. Default                                  : No
  22. Forced                                   : No
  23. Color range                              : Limited
  24. Color primaries                          : BT.2020
  25. Transfer characteristics                 : PQ
  26. Matrix coefficients                      : BT.2020 non-constant
  27. Original source medium                   : Blu-ray
  28. Audio #1
  29. ID                                       : 2
  30. ID in the original source medium         : 4352 (0x1100)
  31. Format                                   : DTS XLL
  32. Format/Info                              : Digital Theater Systems
  33. Commercial name                          : DTS-HD Master Audio
  34. Codec ID                                 : A_DTS
  35. Duration                                 : 1 h 36 min
  36. Bit rate mode                            : Variable
  37. Bit rate                                 : 3 824 kb/s
  38. Channel(s)                               : 6 channels
  39. Channel layout                           : C L R Ls Rs LFE
  40. Sampling rate                            : 48.0 kHz
  41. Frame rate                               : 93.750 FPS (512 SPF)
  42. Bit depth                                : 24 bits
  43. Compression mode                         : Lossless
  44. Stream size                              : 2.59 GiB (6%)
  45. Title                                    : DTS-HD MA 5.1
  46. Language                                 : English
  47. Default                                  : Yes
  48. Forced                                   : No
  49. Original source medium                   : Blu-ray
  50. Audio #2
  51. ID                                       : 3
  52. Format                                   : AC-3
  53. Format/Info                              : Audio Coding 3
  54. Commercial name                          : Dolby Digital
  55. Codec ID                                 : A_AC3
  56. Duration                                 : 1 h 36 min
  57. Bit rate mode                            : Constant
  58. Bit rate                                 : 640 kb/s
  59. Channel(s)                               : 6 channels
  60. Channel layout                           : L R C LFE Ls Rs
  61. Sampling rate                            : 48.0 kHz
  62. Frame rate                               : 31.250 FPS (1536 SPF)
  63. Compression mode                         : Lossy
  64. Stream size                              : 443 MiB (1%)
  65. Title                                    : DD 5.1
  66. Language                                 : English
  67. Service kind                             : Complete Main
  68. Default                                  : No
  69. Forced                                   : No
  70. Text #1
  71. ID                                       : 4
  72. Format                                   : UTF-8
  73. Codec ID                                 : S_TEXT/UTF8
  74. Codec ID/Info                            : UTF-8 Plain Text
  75. Duration                                 : 1 h 36 min
  76. Bit rate                                 : 47 b/s
  77. Frame rate                               : 0.172 FPS
  78. Count of elements                        : 1001
  79. Stream size                              : 33.4 KiB (0%)
  80. Language                                 : English
  81. Default                                  : Yes
  82. Forced                                   : No
  83. Text #2
  84. ID                                       : 5
  85. Format                                   : UTF-8
  86. Codec ID                                 : S_TEXT/UTF8
  87. Codec ID/Info                            : UTF-8 Plain Text
  88. Duration                                 : 1 h 36 min
  89. Bit rate                                 : 52 b/s
  90. Frame rate                               : 0.202 FPS
  91. Count of elements                        : 1175
  92. Stream size                              : 37.1 KiB (0%)
  93. Title                                    : SDH
  94. Language                                 : English
  95. Default                                  : No
  96. Forced                                   : No
  97. Text #3
  98. ID                                       : 6
  99. ID in the original source medium         : 4768 (0x12A0)
  100. Format                                   : PGS
  101. Muxing mode                              : zlib
  102. Codec ID                                 : S_HDMV/PGS
  103. Codec ID/Info                            : Picture based subtitle format used on BDs/HD-DVDs
  104. Duration                                 : 1 h 36 min
  105. Bit rate                                 : 31.4 kb/s
  106. Frame rate                               : 0.405 FPS
  107. Count of elements                        : 2352
  108. Stream size                              : 21.7 MiB (0%)
  109. Language                                 : English
  110. Default                                  : No
  111. Forced                                   : No
  112. Original source medium                   : Blu-ray
  113. Text #4
  114. ID                                       : 7
  115. ID in the original source medium         : 4769 (0x12A1)
  116. Format                                   : PGS
  117. Muxing mode                              : zlib
  118. Codec ID                                 : S_HDMV/PGS
  119. Codec ID/Info                            : Picture based subtitle format used on BDs/HD-DVDs
  120. Duration                                 : 1 h 31 min
  121. Bit rate                                 : 26.6 kb/s
  122. Frame rate                               : 0.361 FPS
  123. Count of elements                        : 1976
  124. Stream size                              : 17.3 MiB (0%)
  125. Language                                 : Spanish
  126. Default                                  : No
  127. Forced                                   : No
  128. Original source medium                   : Blu-ray
  129. Menu
  130. 00:00:00.000                             : en:Chapter 01
  131. 00:10:00.933                             : en:Chapter 02
  132. 00:20:01.533                             : en:Chapter 03
  133. 00:30:01.966                             : en:Chapter 04
  134. 00:40:05.736                             : en:Chapter 05
  135. 00:50:03.583                             : en:Chapter 06
  136. 01:00:04.058                             : en:Chapter 07
  137. 01:10:04.992                             : en:Chapter 08
  138. 01:20:05.258                             : en:Chapter 09
  139. 01:30:05.525                             : en:Chapter 10
  140. 01:32:27.542                             : en:Chapter 11
复制代码




                                       
                                       

                                       
                                       
                                       




回复

使用道具 举报

蓝光币
1782
发表于 2022-7-30 16:52:04 | 显示全部楼层
太好啦&萬分感謝版主的無私發佈分享%
回复 支持 反对

使用道具 举报

懒得打字嘛,点击右侧快捷回复 【右侧内容,后台自定义】
您需要登录后才可以回帖 登录 | 立即加入

本版积分规则

Archiver|小黑屋| 蓝光电影网 |网站地图

Copyright © 2021 Comsenz Inc. Powered by 蓝光电影网

蓝光电影网

本站内容由用户自主分享和转载自互联网,转载目的在于传递更多信息,并不代表本网赞同其观点和对其真实性负责。

如有侵权、违反国家法律政策行为,请联系我们,我们会第一时间及时清除和处理!

举报反馈邮箱:[email protected]

快速回复 返回顶部 返回列表