找回密码

蓝光电影网

查看: 235|回复: 1

[UHD.HEVC] 最后的巫师猎人 The.Last.Witch.Hunter.2015.2160p.FRA.BluRay.REMUX.HEVC.DTS-X.7.1-FGT 51.83GB

[复制链接]
蓝光币
1022
发表于 2022-7-30 17:22:16 | 显示全部楼层 |阅读模式


◎标  题 最初的巫师猎人
◎译  名 最初的女巫猎人 / 巫间猎人(港) / 猎巫行动:大灭绝(台) / Son Cadi Avcisi
◎片  名 The Last Witch Hunter
◎年  代 2015
◎产  地 美国
◎类  别 行动 / 奇异 / 冒险
◎语  言 英语
◎上映日期 2016-01-15(中国大陆) / 2015-10-23(美国)
◎IMDb评分 6/10 (100741人评价)
◎IMDb链接 https://www.imdb.com/title/tt1618442/
◎豆瓣评分 5.9/10 (53783人评价)
◎豆瓣链接 https://movie.douban.com/subject/10440076/
◎片  长 107分钟
◎导  演 布瑞克·埃斯纳尔 Breck Eisner
◎编  剧 科里·古德曼 Cory Goodman
       马特·萨兹马 Matt Sazama
       伯克·沙普利斯 Burk Sharpless
       梅丽莎·沃雷克 Melisa Wallack
◎演  员 范·迪塞尔 Vin Diesel
       露丝·莱斯利 Rose Leslie
       伊利亚·伍德 Elijah Wood
       奥拉维尔·达里·奥拉夫松 Ólafur Darri Ólafsson
       丽纳·欧文 Rena Owen
       朱莉·恩格尔布雷希特 Julie Engelbrecht
       迈克尔·凯恩 Michael Caine
       约瑟夫·吉尔根 Joseph Gilgun
       伊萨赫·德·班克尔 Isaach De Bankolé
       迈克尔·哈尔西 Michael Halsey
       斯隆·库姆斯 Sloane Coombs
       洛特·弗贝克 Lotte Verbeek
       道恩·奥利弗瑞 Dawn Olivieri
       因巴尔·拉维 Inbar Lavi
       阿玛尼·杰克森 Armani Jackson
       艾米·卡里诺 Aimee Carrero
       贝克斯·泰勒-克劳斯 Bex Taylor-Klaus
       大卫·惠伦 David Whalen
       杰克厄迪 Jack Erdie
       Allegra Carpenter Allegra Carpenter
       萨马拉·李 Samara Lee
       大卫·维格 David Vegh
       丹佛·米洛 Denver Milord
       邦妮·摩根 Bonnie Morgan
       马克·斯达格 Mark Steger
       肖恩·卡拉汉 Shane Callahan
       杰克逊·弗雷泽 Jackson Frazer
       詹姆斯·哈奇森三世 James Hutchison III
       凯西·亨德肖特 Casey Hendershot
       埃夫卡·科瓦拉西尤斯 Efka Kvaraciejus
       Jared S. Eddo Jared S. Eddo
       Mike Mukatis Mike Mukatis
       琼·瓦勒拉 Jon Valera
       Kurt Angle Kurt Angle
       约翰·伯纳克 John Bernecker
       阿什克·阿赫塔尔 Asheq Akhtar
       婕咪·埃迪 Jamie Eddy
       威廉·卡尼亚 William Kania
◎标  签 奇异 / 美国 / 范·迪塞尔 / 行动 / 魔幻 / 冒险 / 惊悚 / 2015
◎简  介

    考尔德(范·迪塞尔 Vin Diesel 饰)是一位女巫猎人,在黒巫后的诅咒之下,他获得了不灭的灵魂和不朽的躯体。永生带来的疾苦远远大于欢愉,在孤独和失望当中,考尔德度过了冗长的时光,但是,他却从未放弃过身为一位巫师猎人所应尽的职责,他晓得,女巫并没有绝迹,一个庞大的诡计正在阴影里缓慢酝酿。                                                                      果不其然,黒巫后获得了可以使自己新生的秘术,与此同时,各地的女巫们亦按耐不住,纷纷捋臂张拳,企图实现消灭人类统治天下的野心。考尔德和助手多兰(伊利亚·伍德 Elijah Wood 饰)想要面临复杂而又强大的对手,必须获得善良女巫克洛伊(萝斯·莱斯利 Rose Leslie 饰)的帮助。一场恶战行将拉开序幕。
  1. Video
  2. ID                                       : 1
  3. ID in the original source medium         : 4113 (0x1011)
  4. Format                                   : HEVC
  5. Format/Info                              : High Efficiency Video Coding
  6. Format profile                           : Main [email protected]@High
  7. HDR format                               : Dolby Vision, Version 1.0, dvhe.07.06, BL+EL+RPU, Blu-ray compatible / SMPTE ST 2086, HDR10 compatible
  8. Codec ID                                 : V_MPEGH/ISO/HEVC
  9. Duration                                 : 1 h 46 min
  10. Bit rate                                 : 60.1 Mb/s
  11. Width                                    : 3 840 pixels
  12. Height                                   : 2 160 pixels
  13. Display aspect ratio                     : 16:9
  14. Frame rate mode                          : Constant
  15. Frame rate                               : 23.976 (24000/1001/189150) FPS
  16. Color space                              : YUV
  17. Chroma subsampling                       : 4:2:0 (Type 2)
  18. Bit depth                                : 10 bits
  19. Bits/(Pixel*Frame)                       : 0.302
  20. Stream size                              : 44.7 GiB (86%)
  21. Language                                 : English
  22. Default                                  : No
  23. Forced                                   : No
  24. Color range                              : Limited
  25. Color primaries                          : BT.2020
  26. Transfer characteristics                 : PQ
  27. Matrix coefficients                      : BT.2020 non-constant
  28. Mastering display color primaries        : Display P3
  29. Mastering display luminance              : min: 0.0001 cd/m2, max: 1000 cd/m2
  30. Original source medium                   : Blu-ray
  31. Audio #1
  32. ID                                       : 2
  33. ID in the original source medium         : 4353 (0x1101)
  34. Format                                   : DTS XLL X
  35. Format/Info                              : Digital Theater Systems
  36. Commercial name                          : DTS-HD Master Audio
  37. Codec ID                                 : A_DTS
  38. Duration                                 : 1 h 46 min
  39. Bit rate mode                            : Variable
  40. Bit rate                                 : 4 678 kb/s
  41. Channel(s)                               : 8 channels
  42. Channel(s)_Original                      : Object Based
  43. ChannelLayout_Original                   : Object Based
  44. Sampling rate                            : 48.0 kHz
  45. Frame rate                               : 93.750 FPS (512 SPF)
  46. Bit depth                                : 24 bits
  47. Stream size                              : 3.48 GiB (7%)
  48. Title                                    : DTS-X 7.1
  49. Language                                 : English
  50. Default                                  : Yes
  51. Forced                                   : No
  52. Original source medium                   : Blu-ray
  53. Audio #2
  54. ID                                       : 3
  55. Format                                   : AC-3
  56. Format/Info                              : Audio Coding 3
  57. Commercial name                          : Dolby Digital
  58. Codec ID                                 : A_AC3
  59. Duration                                 : 1 h 46 min
  60. Bit rate mode                            : Constant
  61. Bit rate                                 : 640 kb/s
  62. Channel(s)                               : 6 channels
  63. Channel layout                           : L R C LFE Ls Rs
  64. Sampling rate                            : 48.0 kHz
  65. Frame rate                               : 31.250 FPS (1536 SPF)
  66. Compression mode                         : Lossy
  67. Stream size                              : 488 MiB (1%)
  68. Title                                    : DD 5.1
  69. Language                                 : English
  70. Service kind                             : Complete Main
  71. Default                                  : No
  72. Forced                                   : No
  73. Audio #3
  74. ID                                       : 4
  75. ID in the original source medium         : 4352 (0x1100)
  76. Format                                   : DTS XLL
  77. Format/Info                              : Digital Theater Systems
  78. Commercial name                          : DTS-HD Master Audio
  79. Codec ID                                 : A_DTS
  80. Duration                                 : 1 h 46 min
  81. Bit rate mode                            : Variable
  82. Bit rate                                 : 3 433 kb/s
  83. Channel(s)                               : 6 channels
  84. Channel layout                           : C L R Ls Rs LFE
  85. Sampling rate                            : 48.0 kHz
  86. Frame rate                               : 93.750 FPS (512 SPF)
  87. Bit depth                                : 24 bits
  88. Compression mode                         : Lossless
  89. Stream size                              : 2.56 GiB (5%)
  90. Title                                    : DTS-HD MA 5.1
  91. Language                                 : French
  92. Default                                  : No
  93. Forced                                   : No
  94. Original source medium                   : Blu-ray
  95. Audio #4
  96. ID                                       : 5
  97. ID in the original source medium         : 4354 (0x1102)
  98. Format                                   : DTS
  99. Format/Info                              : Digital Theater Systems
  100. Codec ID                                 : A_DTS
  101. Duration                                 : 1 h 46 min
  102. Bit rate mode                            : Constant
  103. Bit rate                                 : 768 kb/s
  104. Channel(s)                               : 2 channels
  105. Channel layout                           : L R
  106. Sampling rate                            : 48.0 kHz
  107. Frame rate                               : 93.750 FPS (512 SPF)
  108. Bit depth                                : 24 bits
  109. Compression mode                         : Lossy
  110. Stream size                              : 585 MiB (1%)
  111. Title                                    : DTS 2.0
  112. Language                                 : French
  113. Default                                  : No
  114. Forced                                   : No
  115. Original source medium                   : Blu-ray
  116. Text #1
  117. ID                                       : 6
  118. Format                                   : UTF-8
  119. Codec ID                                 : S_TEXT/UTF8
  120. Codec ID/Info                            : UTF-8 Plain Text
  121. Duration                                 : 1 h 35 min
  122. Bit rate                                 : 39 b/s
  123. Frame rate                               : 0.183 FPS
  124. Count of elements                        : 1053
  125. Stream size                              : 27.8 KiB (0%)
  126. Language                                 : English
  127. Default                                  : Yes
  128. Forced                                   : No
  129. Text #2
  130. ID                                       : 7
  131. ID in the original source medium         : 4768 (0x12A0)
  132. Format                                   : PGS
  133. Muxing mode                              : zlib
  134. Codec ID                                 : S_HDMV/PGS
  135. Codec ID/Info                            : Picture based subtitle format used on BDs/HD-DVDs
  136. Duration                                 : 1 h 38 min
  137. Bit rate                                 : 70 b/s
  138. Frame rate                               : 0.001 FPS
  139. Count of elements                        : 4
  140. Stream size                              : 50.8 KiB (0%)
  141. Language                                 : French
  142. Default                                  : No
  143. Forced                                   : No
  144. Original source medium                   : Blu-ray
  145. Text #3
  146. ID                                       : 8
  147. ID in the original source medium         : 4769 (0x12A1)
  148. Format                                   : PGS
  149. Muxing mode                              : zlib
  150. Codec ID                                 : S_HDMV/PGS
  151. Codec ID/Info                            : Picture based subtitle format used on BDs/HD-DVDs
  152. Duration                                 : 1 h 44 min
  153. Bit rate                                 : 18.6 kb/s
  154. Frame rate                               : 0.300 FPS
  155. Count of elements                        : 1890
  156. Stream size                              : 14.0 MiB (0%)
  157. Language                                 : French
  158. Default                                  : No
  159. Forced                                   : No
  160. Original source medium                   : Blu-ray
  161. Text #4
  162. ID                                       : 9
  163. ID in the original source medium         : 4770 (0x12A2)
  164. Format                                   : PGS
  165. Muxing mode                              : zlib
  166. Codec ID                                 : S_HDMV/PGS
  167. Codec ID/Info                            : Picture based subtitle format used on BDs/HD-DVDs
  168. Duration                                 : 1 h 46 min
  169. Bit rate                                 : 23.8 kb/s
  170. Frame rate                               : 0.382 FPS
  171. Count of elements                        : 2430
  172. Stream size                              : 18.1 MiB (0%)
  173. Language                                 : French
  174. Default                                  : No
  175. Forced                                   : No
  176. Original source medium                   : Blu-ray
  177. Menu
  178. 00:00:00.000                             : en:Chapter 01
  179. 00:08:01.481                             : en:Chapter 02
  180. 00:16:34.493                             : en:Chapter 03
  181. 00:25:18.016                             : en:Chapter 04
  182. 00:31:50.408                             : en:Chapter 05
  183. 00:40:02.817                             : en:Chapter 06
  184. 00:47:21.547                             : en:Chapter 07
  185. 00:55:46.343                             : en:Chapter 08
  186. 01:03:55.498                             : en:Chapter 09
  187. 01:12:10.784                             : en:Chapter 10
  188. 01:20:55.851                             : en:Chapter 11
  189. 01:30:39.434                             : en:Chapter 12
复制代码




                                       
                                       

                                       
                                       
                                       




回复

使用道具 举报

蓝光币
1
发表于 2022-7-31 17:40:23 | 显示全部楼层
好资源,好喜欢, 收下了
回复 支持 反对

使用道具 举报

懒得打字嘛,点击右侧快捷回复 【右侧内容,后台自定义】
您需要登录后才可以回帖 登录 | 立即加入

本版积分规则

Archiver|小黑屋| 蓝光电影网 |网站地图

Copyright © 2021 Comsenz Inc. Powered by 蓝光电影网

蓝光电影网

本站内容由用户自主分享和转载自互联网,转载目的在于传递更多信息,并不代表本网赞同其观点和对其真实性负责。

如有侵权、违反国家法律政策行为,请联系我们,我们会第一时间及时清除和处理!

举报反馈邮箱:[email protected]

快速回复 返回顶部 返回列表