找回密码

蓝光电影网

查看: 33|回复: 0

[喜剧] 刺猬索尼克2 Sonic.the.Hedgehog.2.2022.1080p.BluRay.x264.TrueHD.7.1.Atmos-MT 14.61GB

[复制链接]
蓝光币
886
发表于 2022-7-30 19:53:02 | 显示全部楼层 |阅读模式


◎标  题 刺猬索尼克2
◎译  名 超音鼠大电影2(港) / 音速小子2(台)
◎片  名 Sonic the Hedgehog 2
◎年  代 2022
◎产  地 美国 / 日本
◎类  别 笑剧 / 行动 / 科幻 / 动画 / 冒险
◎语  言 英语
◎上映日期 2022(中国大陆) / 2022-04-08(美国)
◎IMDb评分 6.7/10 (27693人评价)
◎IMDb链接 https://www.imdb.com/title/tt12412888/
◎豆瓣链接 https://movie.douban.com/subject/35083986/
◎片  长 122分钟
◎导  演 杰夫·福勒 Jeff Fowler
◎编  剧 帕特里克·凯西 Patrick Casey
       乔什·米勒 Josh Miller
       约翰·惠廷顿 John Whittington
◎演  员 詹姆斯·麦斯登 James Marsden
       金·凯瑞 Jim Carrey
       本·施瓦茨 Ben Schwartz
       提卡·森普特 Tika Sumpter
       伊德里斯·艾尔巴 Idris Elba
       娜塔莎·罗斯韦尔 Natasha Rothwell
       亚当·佩里 Adam Pally
       谢默·摩尔 Shemar Moore
       李·马贾道布 Lee Majdoub
       科琳·欧肖内希 Colleen O'Shaughnessey
       梅洛德·诺西普·尼曼 Melody Nosipho Niemann
       汤姆·巴特勒 Tom Butler
       布拉德·卡利利莫库 Brad Kalilimoku
       杰夫·桑卡 Jeff Sanca
       伊丽莎白·鲍恩 Elizabeth Bowen
       多恩·列夫 Don Lew
       里斯·威廉姆斯 Rhys Williams
       西蒙·钱 Simon Chin
       弗雷泽·科比特 Fraser Corbett
       奎因·厄利 Quinn Early
       马库斯·奥雷里奥 Marcus Aurelio
       尼托·拉里奥萨 Nito Larioza
       迈克·鲁菲诺 Mike Rufino
       詹姆斯·兰索恩 James Ransone
       琼基·XL Junkie XL
◎简  介

  索尼克在绿丘镇安置下来以后,就急着要证实自己有才能成为一位实在的豪杰。当蛋头博士带着全新的同伴纳克鲁斯,又返来寻觅一块气力强大足以扑灭人类文化的翡翠的时辰,他就面临了另一个严重的考验。此次索尼克和他自己的仆从塔尔斯携手合作,一路踏上一场周游天下的冒险旅程,希望能在那块翡翠落入好人手中之前先找到它。
  1. Video
  2. ID                                       : 1
  3. Format                                   : AVC
  4. Format/Info                              : Advanced Video Codec
  5. Format profile                           : [email protected]
  6. Format settings                          : CABAC / 5 Ref Frames
  7. Format settings, CABAC                   : Yes
  8. Format settings, Reference frames        : 5 frames
  9. Codec ID                                 : V_MPEG4/ISO/AVC
  10. Duration                                 : 2 h 2 min
  11. Bit rate                                 : 11.1 Mb/s
  12. Width                                    : 1 920 pixels
  13. Height                                   : 804 pixels
  14. Display aspect ratio                     : 2.40:1
  15. Frame rate mode                          : Constant
  16. Frame rate                               : 23.976 (24000/1001/189150) FPS
  17. Color space                              : YUV
  18. Chroma subsampling                       : 4:2:0
  19. Bit depth                                : 8 bits
  20. Scan type                                : Progressive
  21. Bits/(Pixel*Frame)                       : 0.300
  22. Stream size                              : 9.50 GiB (65%)
  23. Writing library                          : x264 core 157 r2938 2b00a84 [email protected] Mod
  24. Encoding settings                        : cabac=1 / ref=5 / deblock=1:-3:-3 / analyse=0x3:0x133 / me=umh / subme=10 / psy=1 / psy_rd=1.05:0.00 / mixed_ref=1 / me_range=32 / chroma_me=1 / trellis=2 / 8x8dct=1 / cqm=0 / deadzone=21,11 / fast_pskip=0 / chroma_qp_offset=-2 / threads=12 / lookahead_threads=2 / sliced_threads=0 / nr=0 / decimate=0 / interlaced=0 / bluray_compat=0 / constrained_intra=0 / bframes=8 / b_pyramid=2 / b_adapt=2 / b_bias=0 / direct=3 / weightb=1 / open_gop=0 / weightp=2 / keyint=250 / keyint_min=24 / scenecut=40 / intra_refresh=0 / rc_lookahead=250 / rc=crf / mbtree=0 / crf=16.8 / qcomp=0.60 / qpmin=0 / qpmax=69 / qpstep=4 / vbv_maxrate=62500 / vbv_bufsize=78125 / crf_max=0.0 / nal_hrd=none / filler=0 / ip_ratio=1.30 / pb_ratio=1.20 / aq=3:0.80
  25. Language                                 : English
  26. Default                                  : Yes
  27. Forced                                   : No
  28. Color range                              : Limited
  29. Color primaries                          : BT.709
  30. Matrix coefficients                      : BT.709
  31. Audio #1
  32. ID                                       : 2
  33. ID in the original source medium         : 4352 (0x1100)
  34. Format                                   : MLP FBA 16-ch
  35. Format/Info                              : Meridian Lossless Packing FBA with 16-channel presentation
  36. Commercial name                          : Dolby TrueHD with Dolby Atmos
  37. Codec ID                                 : A_TRUEHD
  38. Duration                                 : 2 h 2 min
  39. Bit rate mode                            : Variable
  40. Bit rate                                 : 4 873 kb/s
  41. Maximum bit rate                         : 8 142 kb/s
  42. Channel(s)                               : 8 channels
  43. Channel layout                           : L R C LFE Ls Rs Lb Rb
  44. Sampling rate                            : 48.0 kHz
  45. Frame rate                               : 1 200.000 FPS (40 SPF)
  46. Bit depth                                : 24 bits
  47. Compression mode                         : Lossless
  48. Stream size                              : 4.16 GiB (28%)
  49. Title                                    : TrueHD 7.1 Atmos
  50. Language                                 : English
  51. Default                                  : Yes
  52. Forced                                   : No
  53. Original source medium                   : Blu-ray
  54. Number of dynamic objects                : 11
  55. Bed channel count                        : 1 channel
  56. Bed channel configuration                : LFE
  57. Audio #2
  58. ID                                       : 3
  59. ID in the original source medium         : 4352 (0x1100)
  60. Format                                   : AC-3
  61. Format/Info                              : Audio Coding 3
  62. Commercial name                          : Dolby Digital
  63. Format settings                          : Dolby Surround EX
  64. Codec ID                                 : A_AC3
  65. Duration                                 : 2 h 2 min
  66. Bit rate mode                            : Constant
  67. Bit rate                                 : 640 kb/s
  68. Channel(s)                               : 6 channels
  69. Channel layout                           : L R C LFE Ls Rs
  70. Sampling rate                            : 48.0 kHz
  71. Frame rate                               : 31.250 FPS (1536 SPF)
  72. Compression mode                         : Lossy
  73. Stream size                              : 560 MiB (4%)
  74. Title                                    : DD 5.1
  75. Language                                 : English
  76. Service kind                             : Complete Main
  77. Default                                  : No
  78. Forced                                   : No
  79. Original source medium                   : Blu-ray
  80. Text #1
  81. ID                                       : 4
  82. Format                                   : UTF-8
  83. Codec ID                                 : S_TEXT/UTF8
  84. Codec ID/Info                            : UTF-8 Plain Text
  85. Duration                                 : 42 min 25 s
  86. Bit rate                                 : 0 b/s
  87. Frame rate                               : 0.003 FPS
  88. Count of elements                        : 7
  89. Stream size                              : 171 Bytes (0%)
  90. Title                                    : FORCED
  91. Language                                 : English
  92. Default                                  : No
  93. Forced                                   : Yes
  94. Text #2
  95. ID                                       : 5
  96. Format                                   : UTF-8
  97. Codec ID                                 : S_TEXT/UTF8
  98. Codec ID/Info                            : UTF-8 Plain Text
  99. Duration                                 : 1 h 52 min
  100. Bit rate                                 : 59 b/s
  101. Frame rate                               : 0.246 FPS
  102. Count of elements                        : 1655
  103. Stream size                              : 48.8 KiB (0%)
  104. Language                                 : English
  105. Default                                  : Yes
  106. Forced                                   : No
  107. Text #3
  108. ID                                       : 6
  109. Format                                   : UTF-8
  110. Codec ID                                 : S_TEXT/UTF8
  111. Codec ID/Info                            : UTF-8 Plain Text
  112. Duration                                 : 1 h 52 min
  113. Bit rate                                 : 67 b/s
  114. Frame rate                               : 0.295 FPS
  115. Count of elements                        : 1985
  116. Stream size                              : 55.7 KiB (0%)
  117. Title                                    : SDH
  118. Language                                 : English
  119. Default                                  : No
  120. Forced                                   : No
  121. Text #4
  122. ID                                       : 7
  123. ID in the original source medium         : 4608 (0x1200)
  124. Format                                   : PGS
  125. Muxing mode                              : zlib
  126. Codec ID                                 : S_HDMV/PGS
  127. Codec ID/Info                            : Picture based subtitle format used on BDs/HD-DVDs
  128. Duration                                 : 1 h 52 min
  129. Bit rate                                 : 37.3 kb/s
  130. Frame rate                               : 0.407 FPS
  131. Count of elements                        : 2736
  132. Stream size                              : 29.9 MiB (0%)
  133. Title                                    : FORCED
  134. Language                                 : English
  135. Default                                  : No
  136. Forced                                   : Yes
  137. Original source medium                   : Blu-ray
  138. Text #5
  139. ID                                       : 8
  140. ID in the original source medium         : 4608 (0x1200)
  141. Format                                   : PGS
  142. Muxing mode                              : zlib
  143. Codec ID                                 : S_HDMV/PGS
  144. Codec ID/Info                            : Picture based subtitle format used on BDs/HD-DVDs
  145. Duration                                 : 42 min 25 s
  146. Bit rate                                 : 264 b/s
  147. Frame rate                               : 0.006 FPS
  148. Count of elements                        : 14
  149. Stream size                              : 82.2 KiB (0%)
  150. Language                                 : English
  151. Default                                  : No
  152. Forced                                   : No
  153. Original source medium                   : Blu-ray
  154. Text #6
  155. ID                                       : 9
  156. ID in the original source medium         : 4609 (0x1201)
  157. Format                                   : PGS
  158. Muxing mode                              : zlib
  159. Codec ID                                 : S_HDMV/PGS
  160. Codec ID/Info                            : Picture based subtitle format used on BDs/HD-DVDs
  161. Duration                                 : 1 h 52 min
  162. Bit rate                                 : 48.0 kb/s
  163. Frame rate                               : 0.595 FPS
  164. Count of elements                        : 3998
  165. Stream size                              : 38.4 MiB (0%)
  166. Title                                    : SDH
  167. Language                                 : English
  168. Default                                  : No
  169. Forced                                   : No
  170. Original source medium                   : Blu-ray
  171. Text #7
  172. ID                                       : 10
  173. ID in the original source medium         : 4610 (0x1202)
  174. Format                                   : PGS
  175. Muxing mode                              : zlib
  176. Codec ID                                 : S_HDMV/PGS
  177. Codec ID/Info                            : Picture based subtitle format used on BDs/HD-DVDs
  178. Duration                                 : 2 h 1 min
  179. Bit rate                                 : 29.4 kb/s
  180. Frame rate                               : 0.352 FPS
  181. Count of elements                        : 2564
  182. Stream size                              : 25.5 MiB (0%)
  183. Language                                 : Danish
  184. Default                                  : No
  185. Forced                                   : No
  186. Original source medium                   : Blu-ray
  187. Text #8
  188. ID                                       : 11
  189. ID in the original source medium         : 4611 (0x1203)
  190. Format                                   : PGS
  191. Muxing mode                              : zlib
  192. Codec ID                                 : S_HDMV/PGS
  193. Codec ID/Info                            : Picture based subtitle format used on BDs/HD-DVDs
  194. Duration                                 : 2 h 1 min
  195. Bit rate                                 : 34.5 kb/s
  196. Frame rate                               : 0.378 FPS
  197. Count of elements                        : 2756
  198. Stream size                              : 29.9 MiB (0%)
  199. Language                                 : Spanish
  200. Default                                  : No
  201. Forced                                   : No
  202. Original source medium                   : Blu-ray
  203. Text #9
  204. ID                                       : 12
  205. ID in the original source medium         : 4611 (0x1203)
  206. Format                                   : PGS
  207. Muxing mode                              : zlib
  208. Codec ID                                 : S_HDMV/PGS
  209. Codec ID/Info                            : Picture based subtitle format used on BDs/HD-DVDs
  210. Duration                                 : 2 h 1 min
  211. Bit rate                                 : 494 b/s
  212. Frame rate                               : 0.008 FPS
  213. Count of elements                        : 58
  214. Stream size                              : 440 KiB (0%)
  215. Language                                 : Spanish
  216. Default                                  : No
  217. Forced                                   : No
  218. Original source medium                   : Blu-ray
  219. Text #10
  220. ID                                       : 13
  221. ID in the original source medium         : 4612 (0x1204)
  222. Format                                   : PGS
  223. Muxing mode                              : zlib
  224. Codec ID                                 : S_HDMV/PGS
  225. Codec ID/Info                            : Picture based subtitle format used on BDs/HD-DVDs
  226. Duration                                 : 2 h 1 min
  227. Bit rate                                 : 32.1 kb/s
  228. Frame rate                               : 0.362 FPS
  229. Count of elements                        : 2638
  230. Stream size                              : 27.9 MiB (0%)
  231. Language                                 : Spanish
  232. Default                                  : No
  233. Forced                                   : No
  234. Original source medium                   : Blu-ray
  235. Text #11
  236. ID                                       : 14
  237. ID in the original source medium         : 4612 (0x1204)
  238. Format                                   : PGS
  239. Muxing mode                              : zlib
  240. Codec ID                                 : S_HDMV/PGS
  241. Codec ID/Info                            : Picture based subtitle format used on BDs/HD-DVDs
  242. Duration                                 : 2 h 1 min
  243. Bit rate                                 : 422 b/s
  244. Frame rate                               : 0.007 FPS
  245. Count of elements                        : 50
  246. Stream size                              : 376 KiB (0%)
  247. Language                                 : Spanish
  248. Default                                  : No
  249. Forced                                   : No
  250. Original source medium                   : Blu-ray
  251. Text #12
  252. ID                                       : 15
  253. ID in the original source medium         : 4613 (0x1205)
  254. Format                                   : PGS
  255. Muxing mode                              : zlib
  256. Codec ID                                 : S_HDMV/PGS
  257. Codec ID/Info                            : Picture based subtitle format used on BDs/HD-DVDs
  258. Duration                                 : 2 h 1 min
  259. Bit rate                                 : 30.3 kb/s
  260. Frame rate                               : 0.361 FPS
  261. Count of elements                        : 2630
  262. Stream size                              : 26.3 MiB (0%)
  263. Language                                 : French
  264. Default                                  : No
  265. Forced                                   : No
  266. Original source medium                   : Blu-ray
  267. Text #13
  268. ID                                       : 16
  269. ID in the original source medium         : 4613 (0x1205)
  270. Format                                   : PGS
  271. Muxing mode                              : zlib
  272. Codec ID                                 : S_HDMV/PGS
  273. Codec ID/Info                            : Picture based subtitle format used on BDs/HD-DVDs
  274. Duration                                 : 2 h 1 min
  275. Bit rate                                 : 373 b/s
  276. Frame rate                               : 0.007 FPS
  277. Count of elements                        : 48
  278. Stream size                              : 332 KiB (0%)
  279. Language                                 : French
  280. Default                                  : No
  281. Forced                                   : No
  282. Original source medium                   : Blu-ray
  283. Text #14
  284. ID                                       : 17
  285. ID in the original source medium         : 4614 (0x1206)
  286. Format                                   : PGS
  287. Muxing mode                              : zlib
  288. Codec ID                                 : S_HDMV/PGS
  289. Codec ID/Info                            : Picture based subtitle format used on BDs/HD-DVDs
  290. Duration                                 : 2 h 1 min
  291. Bit rate                                 : 34.1 kb/s
  292. Frame rate                               : 0.381 FPS
  293. Count of elements                        : 2776
  294. Stream size                              : 29.6 MiB (0%)
  295. Language                                 : French
  296. Default                                  : No
  297. Forced                                   : No
  298. Original source medium                   : Blu-ray
  299. Text #15
  300. ID                                       : 18
  301. ID in the original source medium         : 4614 (0x1206)
  302. Format                                   : PGS
  303. Muxing mode                              : zlib
  304. Codec ID                                 : S_HDMV/PGS
  305. Codec ID/Info                            : Picture based subtitle format used on BDs/HD-DVDs
  306. Duration                                 : 2 h 1 min
  307. Bit rate                                 : 487 b/s
  308. Frame rate                               : 0.007 FPS
  309. Count of elements                        : 54
  310. Stream size                              : 433 KiB (0%)
  311. Language                                 : French
  312. Default                                  : No
  313. Forced                                   : No
  314. Original source medium                   : Blu-ray
  315. Text #16
  316. ID                                       : 19
  317. ID in the original source medium         : 4615 (0x1207)
  318. Format                                   : PGS
  319. Muxing mode                              : zlib
  320. Codec ID                                 : S_HDMV/PGS
  321. Codec ID/Info                            : Picture based subtitle format used on BDs/HD-DVDs
  322. Duration                                 : 2 h 1 min
  323. Bit rate                                 : 30.3 kb/s
  324. Frame rate                               : 0.365 FPS
  325. Count of elements                        : 2660
  326. Stream size                              : 26.3 MiB (0%)
  327. Language                                 : Dutch
  328. Default                                  : No
  329. Forced                                   : No
  330. Original source medium                   : Blu-ray
  331. Text #17
  332. ID                                       : 20
  333. ID in the original source medium         : 4616 (0x1208)
  334. Format                                   : PGS
  335. Muxing mode                              : zlib
  336. Codec ID                                 : S_HDMV/PGS
  337. Codec ID/Info                            : Picture based subtitle format used on BDs/HD-DVDs
  338. Duration                                 : 2 h 1 min
  339. Bit rate                                 : 29.7 kb/s
  340. Frame rate                               : 0.372 FPS
  341. Count of elements                        : 2706
  342. Stream size                              : 25.8 MiB (0%)
  343. Language                                 : Norwegian
  344. Default                                  : No
  345. Forced                                   : No
  346. Original source medium                   : Blu-ray
  347. Text #18
  348. ID                                       : 21
  349. ID in the original source medium         : 4617 (0x1209)
  350. Format                                   : PGS
  351. Muxing mode                              : zlib
  352. Codec ID                                 : S_HDMV/PGS
  353. Codec ID/Info                            : Picture based subtitle format used on BDs/HD-DVDs
  354. Duration                                 : 2 h 1 min
  355. Bit rate                                 : 32.9 kb/s
  356. Frame rate                               : 0.379 FPS
  357. Count of elements                        : 2760
  358. Stream size                              : 28.5 MiB (0%)
  359. Language                                 : Portuguese
  360. Default                                  : No
  361. Forced                                   : No
  362. Original source medium                   : Blu-ray
  363. Text #19
  364. ID                                       : 22
  365. ID in the original source medium         : 4617 (0x1209)
  366. Format                                   : PGS
  367. Muxing mode                              : zlib
  368. Codec ID                                 : S_HDMV/PGS
  369. Codec ID/Info                            : Picture based subtitle format used on BDs/HD-DVDs
  370. Duration                                 : 2 h 1 min
  371. Bit rate                                 : 456 b/s
  372. Frame rate                               : 0.007 FPS
  373. Count of elements                        : 54
  374. Stream size                              : 406 KiB (0%)
  375. Language                                 : Portuguese
  376. Default                                  : No
  377. Forced                                   : No
  378. Original source medium                   : Blu-ray
  379. Text #20
  380. ID                                       : 23
  381. ID in the original source medium         : 4618 (0x120A)
  382. Format                                   : PGS
  383. Muxing mode                              : zlib
  384. Codec ID                                 : S_HDMV/PGS
  385. Codec ID/Info                            : Picture based subtitle format used on BDs/HD-DVDs
  386. Duration                                 : 2 h 1 min
  387. Bit rate                                 : 27.7 kb/s
  388. Frame rate                               : 0.370 FPS
  389. Count of elements                        : 2698
  390. Stream size                              : 24.1 MiB (0%)
  391. Language                                 : Finnish
  392. Default                                  : No
  393. Forced                                   : No
  394. Original source medium                   : Blu-ray
  395. Text #21
  396. ID                                       : 24
  397. ID in the original source medium         : 4619 (0x120B)
  398. Format                                   : PGS
  399. Muxing mode                              : zlib
  400. Codec ID                                 : S_HDMV/PGS
  401. Codec ID/Info                            : Picture based subtitle format used on BDs/HD-DVDs
  402. Duration                                 : 2 h 1 min
  403. Bit rate                                 : 30.2 kb/s
  404. Frame rate                               : 0.349 FPS
  405. Count of elements                        : 2542
  406. Stream size                              : 26.3 MiB (0%)
  407. Language                                 : Swedish
  408. Default                                  : No
  409. Forced                                   : No
  410. Original source medium                   : Blu-ray
  411. Text #22
  412. ID                                       : 25
  413. ID in the original source medium         : 4620 (0x120C)
  414. Format                                   : PGS
  415. Muxing mode                              : zlib
  416. Codec ID                                 : S_HDMV/PGS
  417. Codec ID/Info                            : Picture based subtitle format used on BDs/HD-DVDs
  418. Duration                                 : 2 h 2 min
  419. Bit rate                                 : 84.5 kb/s
  420. Frame rate                               : 0.684 FPS
  421. Count of elements                        : 5007
  422. Stream size                              : 73.8 MiB (0%)
  423. Language                                 : English
  424. Default                                  : No
  425. Forced                                   : No
  426. Original source medium                   : Blu-ray
  427. Text #23
  428. ID                                       : 26
  429. ID in the original source medium         : 4621 (0x120D)
  430. Format                                   : PGS
  431. Muxing mode                              : zlib
  432. Codec ID                                 : S_HDMV/PGS
  433. Codec ID/Info                            : Picture based subtitle format used on BDs/HD-DVDs
  434. Duration                                 : 2 h 2 min
  435. Bit rate                                 : 56.3 kb/s
  436. Frame rate                               : 0.623 FPS
  437. Count of elements                        : 4567
  438. Stream size                              : 49.2 MiB (0%)
  439. Language                                 : Spanish
  440. Default                                  : No
  441. Forced                                   : No
  442. Original source medium                   : Blu-ray
  443. Text #24
  444. ID                                       : 27
  445. ID in the original source medium         : 4622 (0x120E)
  446. Format                                   : PGS
  447. Muxing mode                              : zlib
  448. Codec ID                                 : S_HDMV/PGS
  449. Codec ID/Info                            : Picture based subtitle format used on BDs/HD-DVDs
  450. Duration                                 : 2 h 2 min
  451. Bit rate                                 : 65.7 kb/s
  452. Frame rate                               : 0.603 FPS
  453. Count of elements                        : 4423
  454. Stream size                              : 57.4 MiB (0%)
  455. Language                                 : Spanish
  456. Default                                  : No
  457. Forced                                   : No
  458. Original source medium                   : Blu-ray
  459. Text #25
  460. ID                                       : 28
  461. ID in the original source medium         : 4623 (0x120F)
  462. Format                                   : PGS
  463. Muxing mode                              : zlib
  464. Codec ID                                 : S_HDMV/PGS
  465. Codec ID/Info                            : Picture based subtitle format used on BDs/HD-DVDs
  466. Duration                                 : 2 h 2 min
  467. Bit rate                                 : 57.1 kb/s
  468. Frame rate                               : 0.676 FPS
  469. Count of elements                        : 4955
  470. Stream size                              : 49.9 MiB (0%)
  471. Language                                 : French
  472. Default                                  : No
  473. Forced                                   : No
  474. Original source medium                   : Blu-ray
  475. Text #26
  476. ID                                       : 29
  477. ID in the original source medium         : 4624 (0x1210)
  478. Format                                   : PGS
  479. Muxing mode                              : zlib
  480. Codec ID                                 : S_HDMV/PGS
  481. Codec ID/Info                            : Picture based subtitle format used on BDs/HD-DVDs
  482. Duration                                 : 2 h 2 min
  483. Bit rate                                 : 71.5 kb/s
  484. Frame rate                               : 0.669 FPS
  485. Count of elements                        : 4906
  486. Stream size                              : 62.5 MiB (0%)
  487. Language                                 : French
  488. Default                                  : No
  489. Forced                                   : No
  490. Original source medium                   : Blu-ray
  491. Text #27
  492. ID                                       : 30
  493. ID in the original source medium         : 4625 (0x1211)
  494. Format                                   : PGS
  495. Muxing mode                              : zlib
  496. Codec ID                                 : S_HDMV/PGS
  497. Codec ID/Info                            : Picture based subtitle format used on BDs/HD-DVDs
  498. Duration                                 : 2 h 2 min
  499. Bit rate                                 : 66.8 kb/s
  500. Frame rate                               : 0.625 FPS
  501. Count of elements                        : 4580
  502. Stream size                              : 58.4 MiB (0%)
  503. Language                                 : Portuguese
  504. Default                                  : No
  505. Forced                                   : No
  506. Original source medium                   : Blu-ray
  507. Menu
  508. 00:00:00.000                             : en:Chapter 01
  509. 00:05:54.437                             : en:Chapter 02
  510. 00:09:59.515                             : en:Chapter 03
  511. 00:16:32.950                             : en:Chapter 04
  512. 00:20:58.924                             : en:Chapter 05
  513. 00:28:05.475                             : en:Chapter 06
  514. 00:34:19.932                             : en:Chapter 07
  515. 00:39:09.889                             : en:Chapter 08
  516. 00:48:25.235                             : en:Chapter 09
  517. 00:58:32.509                             : en:Chapter 10
  518. 01:04:57.894                             : en:Chapter 11
  519. 01:11:02.049                             : en:Chapter 12
  520. 01:16:09.314                             : en:Chapter 13
  521. 01:26:59.923                             : en:Chapter 14
  522. 01:32:31.837                             : en:Chapter 15
  523. 01:40:46.040                             : en:Chapter 16
  524. 01:48:21.495                             : en:Chapter 17
  525. 01:53:56.079                             : en:Chapter 18
复制代码






                                       
                                       

                                       
                                       
                                       




回复

使用道具 举报

懒得打字嘛,点击右侧快捷回复 【右侧内容,后台自定义】
您需要登录后才可以回帖 登录 | 立即加入

本版积分规则

Archiver|小黑屋| 蓝光电影网 |网站地图

Copyright © 2021 Comsenz Inc. Powered by 蓝光电影网

蓝光电影网

本站内容由用户自主分享和转载自互联网,转载目的在于传递更多信息,并不代表本网赞同其观点和对其真实性负责。

如有侵权、违反国家法律政策行为,请联系我们,我们会第一时间及时清除和处理!

举报反馈邮箱:[email protected]

快速回复 返回顶部 返回列表