找回密码

蓝光电影网

查看: 139|回复: 0

[喜剧] 刺猬索尼克2 Sonic.the.Hedgehog.2.2022.1080p.BluRay.x264.DTS-MT 10.79GB

[复制链接]
蓝光币
1022
发表于 2022-7-30 19:58:07 | 显示全部楼层 |阅读模式


◎标  题 刺猬索尼克2
◎译  名 超音鼠大电影2(港) / 音速小子2(台)
◎片  名 Sonic the Hedgehog 2
◎年  代 2022
◎产  地 美国 / 日本
◎类  别 笑剧 / 行动 / 科幻 / 动画 / 冒险
◎语  言 英语
◎上映日期 2022(中国大陆) / 2022-04-08(美国)
◎IMDb评分 6.7/10 (27693人评价)
◎IMDb链接 https://www.imdb.com/title/tt12412888/
◎豆瓣链接 https://movie.douban.com/subject/35083986/
◎片  长 122分钟
◎导  演 杰夫·福勒 Jeff Fowler
◎编  剧 帕特里克·凯西 Patrick Casey
       乔什·米勒 Josh Miller
       约翰·惠廷顿 John Whittington
◎演  员 詹姆斯·麦斯登 James Marsden
       金·凯瑞 Jim Carrey
       本·施瓦茨 Ben Schwartz
       提卡·森普特 Tika Sumpter
       伊德里斯·艾尔巴 Idris Elba
       娜塔莎·罗斯韦尔 Natasha Rothwell
       亚当·佩里 Adam Pally
       谢默·摩尔 Shemar Moore
       李·马贾道布 Lee Majdoub
       科琳·欧肖内希 Colleen O'Shaughnessey
       梅洛德·诺西普·尼曼 Melody Nosipho Niemann
       汤姆·巴特勒 Tom Butler
       布拉德·卡利利莫库 Brad Kalilimoku
       杰夫·桑卡 Jeff Sanca
       伊丽莎白·鲍恩 Elizabeth Bowen
       多恩·列夫 Don Lew
       里斯·威廉姆斯 Rhys Williams
       西蒙·钱 Simon Chin
       弗雷泽·科比特 Fraser Corbett
       奎因·厄利 Quinn Early
       马库斯·奥雷里奥 Marcus Aurelio
       尼托·拉里奥萨 Nito Larioza
       迈克·鲁菲诺 Mike Rufino
       詹姆斯·兰索恩 James Ransone
       琼基·XL Junkie XL
◎简  介

  索尼克在绿丘镇安置下来以后,就急着要证实自己有才能成为一位实在的豪杰。当蛋头博士带着全新的同伴纳克鲁斯,又返来寻觅一块气力强大足以扑灭人类文化的翡翠的时辰,他就面临了另一个严重的考验。此次索尼克和他自己的仆从塔尔斯携手合作,一路踏上一场周游天下的冒险旅程,希望能在那块翡翠落入好人手中之前先找到它。
  1. Video
  2. ID                                       : 1
  3. Format                                   : AVC
  4. Format/Info                              : Advanced Video Codec
  5. Format profile                           : [email protected]
  6. Format settings                          : CABAC / 5 Ref Frames
  7. Format settings, CABAC                   : Yes
  8. Format settings, Reference frames        : 5 frames
  9. Codec ID                                 : V_MPEG4/ISO/AVC
  10. Duration                                 : 2 h 2 min
  11. Bit rate                                 : 11.1 Mb/s
  12. Width                                    : 1 920 pixels
  13. Height                                   : 804 pixels
  14. Display aspect ratio                     : 2.40:1
  15. Frame rate mode                          : Constant
  16. Frame rate                               : 23.976 (24000/1001/189150) FPS
  17. Color space                              : YUV
  18. Chroma subsampling                       : 4:2:0
  19. Bit depth                                : 8 bits
  20. Scan type                                : Progressive
  21. Bits/(Pixel*Frame)                       : 0.300
  22. Stream size                              : 9.50 GiB (88%)
  23. Writing library                          : x264 core 157 r2938 2b00a84 [email protected] Mod
  24. Encoding settings                        : cabac=1 / ref=5 / deblock=1:-3:-3 / analyse=0x3:0x133 / me=umh / subme=10 / psy=1 / psy_rd=1.05:0.00 / mixed_ref=1 / me_range=32 / chroma_me=1 / trellis=2 / 8x8dct=1 / cqm=0 / deadzone=21,11 / fast_pskip=0 / chroma_qp_offset=-2 / threads=12 / lookahead_threads=2 / sliced_threads=0 / nr=0 / decimate=0 / interlaced=0 / bluray_compat=0 / constrained_intra=0 / bframes=8 / b_pyramid=2 / b_adapt=2 / b_bias=0 / direct=3 / weightb=1 / open_gop=0 / weightp=2 / keyint=250 / keyint_min=24 / scenecut=40 / intra_refresh=0 / rc_lookahead=250 / rc=crf / mbtree=0 / crf=16.8 / qcomp=0.60 / qpmin=0 / qpmax=69 / qpstep=4 / vbv_maxrate=62500 / vbv_bufsize=78125 / crf_max=0.0 / nal_hrd=none / filler=0 / ip_ratio=1.30 / pb_ratio=1.20 / aq=3:0.80
  25. Language                                 : English
  26. Default                                  : Yes
  27. Forced                                   : No
  28. Color range                              : Limited
  29. Color primaries                          : BT.709
  30. Matrix coefficients                      : BT.709
  31. Audio
  32. ID                                       : 2
  33. Format                                   : DTS
  34. Format/Info                              : Digital Theater Systems
  35. Codec ID                                 : A_DTS
  36. Duration                                 : 2 h 2 min
  37. Bit rate mode                            : Constant
  38. Bit rate                                 : 1 509 kb/s
  39. Channel(s)                               : 6 channels
  40. Channel layout                           : C L R Ls Rs LFE
  41. Sampling rate                            : 48.0 kHz
  42. Frame rate                               : 93.750 FPS (512 SPF)
  43. Bit depth                                : 24 bits
  44. Compression mode                         : Lossy
  45. Stream size                              : 1.29 GiB (12%)
  46. Language                                 : English
  47. Default                                  : Yes
  48. Forced                                   : No
  49. Text #1
  50. ID                                       : 3
  51. Format                                   : UTF-8
  52. Codec ID                                 : S_TEXT/UTF8
  53. Codec ID/Info                            : UTF-8 Plain Text
  54. Duration                                 : 42 min 25 s
  55. Bit rate                                 : 0 b/s
  56. Frame rate                               : 0.003 FPS
  57. Count of elements                        : 7
  58. Stream size                              : 171 Bytes (0%)
  59. Title                                    : FORCED
  60. Language                                 : English
  61. Default                                  : No
  62. Forced                                   : Yes
  63. Text #2
  64. ID                                       : 4
  65. Format                                   : UTF-8
  66. Codec ID                                 : S_TEXT/UTF8
  67. Codec ID/Info                            : UTF-8 Plain Text
  68. Duration                                 : 1 h 52 min
  69. Bit rate                                 : 59 b/s
  70. Frame rate                               : 0.246 FPS
  71. Count of elements                        : 1655
  72. Stream size                              : 48.8 KiB (0%)
  73. Language                                 : English
  74. Default                                  : Yes
  75. Forced                                   : No
  76. Text #3
  77. ID                                       : 5
  78. Format                                   : UTF-8
  79. Codec ID                                 : S_TEXT/UTF8
  80. Codec ID/Info                            : UTF-8 Plain Text
  81. Duration                                 : 1 h 52 min
  82. Bit rate                                 : 67 b/s
  83. Frame rate                               : 0.295 FPS
  84. Count of elements                        : 1985
  85. Stream size                              : 55.7 KiB (0%)
  86. Title                                    : SDH
  87. Language                                 : English
  88. Default                                  : No
  89. Forced                                   : No
  90. Menu
  91. 00:00:00.000                             : en:Chapter 01
  92. 00:05:54.437                             : en:Chapter 02
  93. 00:09:59.515                             : en:Chapter 03
  94. 00:16:32.950                             : en:Chapter 04
  95. 00:20:58.924                             : en:Chapter 05
  96. 00:28:05.475                             : en:Chapter 06
  97. 00:34:19.932                             : en:Chapter 07
  98. 00:39:09.889                             : en:Chapter 08
  99. 00:48:25.235                             : en:Chapter 09
  100. 00:58:32.509                             : en:Chapter 10
  101. 01:04:57.894                             : en:Chapter 11
  102. 01:11:02.049                             : en:Chapter 12
  103. 01:16:09.314                             : en:Chapter 13
  104. 01:26:59.923                             : en:Chapter 14
  105. 01:32:31.837                             : en:Chapter 15
  106. 01:40:46.040                             : en:Chapter 16
  107. 01:48:21.495                             : en:Chapter 17
  108. 01:53:56.079                             : en:Chapter 18
复制代码






                                       
                                       

                                       
                                       
                                       




回复

使用道具 举报

懒得打字嘛,点击右侧快捷回复 【右侧内容,后台自定义】
您需要登录后才可以回帖 登录 | 立即加入

本版积分规则

Archiver|小黑屋| 蓝光电影网 |网站地图

Copyright © 2021 Comsenz Inc. Powered by 蓝光电影网

蓝光电影网

本站内容由用户自主分享和转载自互联网,转载目的在于传递更多信息,并不代表本网赞同其观点和对其真实性负责。

如有侵权、违反国家法律政策行为,请联系我们,我们会第一时间及时清除和处理!

举报反馈邮箱:[email protected]

快速回复 返回顶部 返回列表