找回密码

蓝光电影网

查看: 143|回复: 1

[喜剧] 刺猬索尼克2 Sonic.the.Hedgehog.2.2022.1080p.BluRay.x264.DTS-HD.MA.7.1-MT 13.51GB

[复制链接]
蓝光币
1022
发表于 2022-7-30 19:58:14 | 显示全部楼层 |阅读模式


◎标  题 刺猬索尼克2
◎译  名 超音鼠大电影2(港) / 音速小子2(台)
◎片  名 Sonic the Hedgehog 2
◎年  代 2022
◎产  地 美国 / 日本
◎类  别 笑剧 / 行动 / 科幻 / 动画 / 冒险
◎语  言 英语
◎上映日期 2022(中国大陆) / 2022-04-08(美国)
◎IMDb评分 6.7/10 (27693人评价)
◎IMDb链接 https://www.imdb.com/title/tt12412888/
◎豆瓣链接 https://movie.douban.com/subject/35083986/
◎片  长 122分钟
◎导  演 杰夫·福勒 Jeff Fowler
◎编  剧 帕特里克·凯西 Patrick Casey
       乔什·米勒 Josh Miller
       约翰·惠廷顿 John Whittington
◎演  员 詹姆斯·麦斯登 James Marsden
       金·凯瑞 Jim Carrey
       本·施瓦茨 Ben Schwartz
       提卡·森普特 Tika Sumpter
       伊德里斯·艾尔巴 Idris Elba
       娜塔莎·罗斯韦尔 Natasha Rothwell
       亚当·佩里 Adam Pally
       谢默·摩尔 Shemar Moore
       李·马贾道布 Lee Majdoub
       科琳·欧肖内希 Colleen O'Shaughnessey
       梅洛德·诺西普·尼曼 Melody Nosipho Niemann
       汤姆·巴特勒 Tom Butler
       布拉德·卡利利莫库 Brad Kalilimoku
       杰夫·桑卡 Jeff Sanca
       伊丽莎白·鲍恩 Elizabeth Bowen
       多恩·列夫 Don Lew
       里斯·威廉姆斯 Rhys Williams
       西蒙·钱 Simon Chin
       弗雷泽·科比特 Fraser Corbett
       奎因·厄利 Quinn Early
       马库斯·奥雷里奥 Marcus Aurelio
       尼托·拉里奥萨 Nito Larioza
       迈克·鲁菲诺 Mike Rufino
       詹姆斯·兰索恩 James Ransone
       琼基·XL Junkie XL
◎简  介

  索尼克在绿丘镇安置下来以后,就急着要证实自己有才能成为一位实在的豪杰。当蛋头博士带着全新的同伴纳克鲁斯,又返来寻觅一块气力强大足以扑灭人类文化的翡翠的时辰,他就面临了另一个严重的考验。此次索尼克和他自己的仆从塔尔斯携手合作,一路踏上一场周游天下的冒险旅程,希望能在那块翡翠落入好人手中之前先找到它。
  1. Video
  2. ID                                       : 1
  3. Format                                   : AVC
  4. Format/Info                              : Advanced Video Codec
  5. Format profile                           : [email protected]
  6. Format settings                          : CABAC / 5 Ref Frames
  7. Format settings, CABAC                   : Yes
  8. Format settings, Reference frames        : 5 frames
  9. Codec ID                                 : V_MPEG4/ISO/AVC
  10. Duration                                 : 2 h 2 min
  11. Bit rate                                 : 11.1 Mb/s
  12. Width                                    : 1 920 pixels
  13. Height                                   : 804 pixels
  14. Display aspect ratio                     : 2.40:1
  15. Frame rate mode                          : Constant
  16. Frame rate                               : 23.976 (24000/1001/189150) FPS
  17. Color space                              : YUV
  18. Chroma subsampling                       : 4:2:0
  19. Bit depth                                : 8 bits
  20. Scan type                                : Progressive
  21. Bits/(Pixel*Frame)                       : 0.300
  22. Stream size                              : 9.50 GiB (70%)
  23. Writing library                          : x264 core 157 r2938 2b00a84 [email protected] Mod
  24. Encoding settings                        : cabac=1 / ref=5 / deblock=1:-3:-3 / analyse=0x3:0x133 / me=umh / subme=10 / psy=1 / psy_rd=1.05:0.00 / mixed_ref=1 / me_range=32 / chroma_me=1 / trellis=2 / 8x8dct=1 / cqm=0 / deadzone=21,11 / fast_pskip=0 / chroma_qp_offset=-2 / threads=12 / lookahead_threads=2 / sliced_threads=0 / nr=0 / decimate=0 / interlaced=0 / bluray_compat=0 / constrained_intra=0 / bframes=8 / b_pyramid=2 / b_adapt=2 / b_bias=0 / direct=3 / weightb=1 / open_gop=0 / weightp=2 / keyint=250 / keyint_min=24 / scenecut=40 / intra_refresh=0 / rc_lookahead=250 / rc=crf / mbtree=0 / crf=16.8 / qcomp=0.60 / qpmin=0 / qpmax=69 / qpstep=4 / vbv_maxrate=62500 / vbv_bufsize=78125 / crf_max=0.0 / nal_hrd=none / filler=0 / ip_ratio=1.30 / pb_ratio=1.20 / aq=3:0.80
  25. Language                                 : English
  26. Default                                  : Yes
  27. Forced                                   : No
  28. Color range                              : Limited
  29. Color primaries                          : BT.709
  30. Matrix coefficients                      : BT.709
  31. Audio
  32. ID                                       : 2
  33. Format                                   : DTS XLL
  34. Format/Info                              : Digital Theater Systems
  35. Commercial name                          : DTS-HD Master Audio
  36. Codec ID                                 : A_DTS
  37. Duration                                 : 2 h 2 min
  38. Bit rate mode                            : Variable
  39. Bit rate                                 : 4 282 kb/s
  40. Channel(s)                               : 8 channels
  41. Channel layout                           : C L R LFE Lb Rb Lss Rss
  42. Sampling rate                            : 48.0 kHz
  43. Frame rate                               : 93.750 FPS (512 SPF)
  44. Bit depth                                : 24 bits
  45. Compression mode                         : Lossless
  46. Stream size                              : 3.66 GiB (27%)
  47. Title                                    : DTS-HD MA 7.1
  48. Language                                 : English
  49. Default                                  : No
  50. Forced                                   : No
  51. Text #1
  52. ID                                       : 3
  53. Format                                   : UTF-8
  54. Codec ID                                 : S_TEXT/UTF8
  55. Codec ID/Info                            : UTF-8 Plain Text
  56. Duration                                 : 42 min 25 s
  57. Bit rate                                 : 0 b/s
  58. Frame rate                               : 0.003 FPS
  59. Count of elements                        : 7
  60. Stream size                              : 171 Bytes (0%)
  61. Title                                    : FORCED
  62. Language                                 : English
  63. Default                                  : No
  64. Forced                                   : Yes
  65. Text #2
  66. ID                                       : 4
  67. Format                                   : UTF-8
  68. Codec ID                                 : S_TEXT/UTF8
  69. Codec ID/Info                            : UTF-8 Plain Text
  70. Duration                                 : 1 h 52 min
  71. Bit rate                                 : 59 b/s
  72. Frame rate                               : 0.246 FPS
  73. Count of elements                        : 1655
  74. Stream size                              : 48.8 KiB (0%)
  75. Language                                 : English
  76. Default                                  : Yes
  77. Forced                                   : No
  78. Text #3
  79. ID                                       : 5
  80. Format                                   : UTF-8
  81. Codec ID                                 : S_TEXT/UTF8
  82. Codec ID/Info                            : UTF-8 Plain Text
  83. Duration                                 : 1 h 52 min
  84. Bit rate                                 : 67 b/s
  85. Frame rate                               : 0.295 FPS
  86. Count of elements                        : 1985
  87. Stream size                              : 55.7 KiB (0%)
  88. Title                                    : SDH
  89. Language                                 : English
  90. Default                                  : No
  91. Forced                                   : No
  92. Text #4
  93. ID                                       : 6
  94. ID in the original source medium         : 4608 (0x1200)
  95. Format                                   : PGS
  96. Muxing mode                              : zlib
  97. Codec ID                                 : S_HDMV/PGS
  98. Codec ID/Info                            : Picture based subtitle format used on BDs/HD-DVDs
  99. Duration                                 : 1 h 52 min
  100. Bit rate                                 : 37.3 kb/s
  101. Frame rate                               : 0.407 FPS
  102. Count of elements                        : 2736
  103. Stream size                              : 29.9 MiB (0%)
  104. Title                                    : FORCED
  105. Language                                 : English
  106. Default                                  : No
  107. Forced                                   : Yes
  108. Original source medium                   : Blu-ray
  109. Text #5
  110. ID                                       : 7
  111. ID in the original source medium         : 4608 (0x1200)
  112. Format                                   : PGS
  113. Muxing mode                              : zlib
  114. Codec ID                                 : S_HDMV/PGS
  115. Codec ID/Info                            : Picture based subtitle format used on BDs/HD-DVDs
  116. Duration                                 : 42 min 25 s
  117. Bit rate                                 : 264 b/s
  118. Frame rate                               : 0.006 FPS
  119. Count of elements                        : 14
  120. Stream size                              : 82.2 KiB (0%)
  121. Language                                 : English
  122. Default                                  : No
  123. Forced                                   : No
  124. Original source medium                   : Blu-ray
  125. Text #6
  126. ID                                       : 8
  127. ID in the original source medium         : 4609 (0x1201)
  128. Format                                   : PGS
  129. Muxing mode                              : zlib
  130. Codec ID                                 : S_HDMV/PGS
  131. Codec ID/Info                            : Picture based subtitle format used on BDs/HD-DVDs
  132. Duration                                 : 1 h 52 min
  133. Bit rate                                 : 48.0 kb/s
  134. Frame rate                               : 0.595 FPS
  135. Count of elements                        : 3998
  136. Stream size                              : 38.4 MiB (0%)
  137. Title                                    : SDH
  138. Language                                 : English
  139. Default                                  : No
  140. Forced                                   : No
  141. Original source medium                   : Blu-ray
  142. Text #7
  143. ID                                       : 9
  144. ID in the original source medium         : 4610 (0x1202)
  145. Format                                   : PGS
  146. Muxing mode                              : zlib
  147. Codec ID                                 : S_HDMV/PGS
  148. Codec ID/Info                            : Picture based subtitle format used on BDs/HD-DVDs
  149. Duration                                 : 2 h 1 min
  150. Bit rate                                 : 29.4 kb/s
  151. Frame rate                               : 0.352 FPS
  152. Count of elements                        : 2564
  153. Stream size                              : 25.5 MiB (0%)
  154. Language                                 : Danish
  155. Default                                  : No
  156. Forced                                   : No
  157. Original source medium                   : Blu-ray
  158. Text #8
  159. ID                                       : 10
  160. ID in the original source medium         : 4611 (0x1203)
  161. Format                                   : PGS
  162. Muxing mode                              : zlib
  163. Codec ID                                 : S_HDMV/PGS
  164. Codec ID/Info                            : Picture based subtitle format used on BDs/HD-DVDs
  165. Duration                                 : 2 h 1 min
  166. Bit rate                                 : 34.5 kb/s
  167. Frame rate                               : 0.378 FPS
  168. Count of elements                        : 2756
  169. Stream size                              : 29.9 MiB (0%)
  170. Language                                 : Spanish
  171. Default                                  : No
  172. Forced                                   : No
  173. Original source medium                   : Blu-ray
  174. Text #9
  175. ID                                       : 11
  176. ID in the original source medium         : 4611 (0x1203)
  177. Format                                   : PGS
  178. Muxing mode                              : zlib
  179. Codec ID                                 : S_HDMV/PGS
  180. Codec ID/Info                            : Picture based subtitle format used on BDs/HD-DVDs
  181. Duration                                 : 2 h 1 min
  182. Bit rate                                 : 494 b/s
  183. Frame rate                               : 0.008 FPS
  184. Count of elements                        : 58
  185. Stream size                              : 440 KiB (0%)
  186. Language                                 : Spanish
  187. Default                                  : No
  188. Forced                                   : No
  189. Original source medium                   : Blu-ray
  190. Text #10
  191. ID                                       : 12
  192. ID in the original source medium         : 4612 (0x1204)
  193. Format                                   : PGS
  194. Muxing mode                              : zlib
  195. Codec ID                                 : S_HDMV/PGS
  196. Codec ID/Info                            : Picture based subtitle format used on BDs/HD-DVDs
  197. Duration                                 : 2 h 1 min
  198. Bit rate                                 : 32.1 kb/s
  199. Frame rate                               : 0.362 FPS
  200. Count of elements                        : 2638
  201. Stream size                              : 27.9 MiB (0%)
  202. Language                                 : Spanish
  203. Default                                  : No
  204. Forced                                   : No
  205. Original source medium                   : Blu-ray
  206. Text #11
  207. ID                                       : 13
  208. ID in the original source medium         : 4612 (0x1204)
  209. Format                                   : PGS
  210. Muxing mode                              : zlib
  211. Codec ID                                 : S_HDMV/PGS
  212. Codec ID/Info                            : Picture based subtitle format used on BDs/HD-DVDs
  213. Duration                                 : 2 h 1 min
  214. Bit rate                                 : 422 b/s
  215. Frame rate                               : 0.007 FPS
  216. Count of elements                        : 50
  217. Stream size                              : 376 KiB (0%)
  218. Language                                 : Spanish
  219. Default                                  : No
  220. Forced                                   : No
  221. Original source medium                   : Blu-ray
  222. Text #12
  223. ID                                       : 14
  224. ID in the original source medium         : 4613 (0x1205)
  225. Format                                   : PGS
  226. Muxing mode                              : zlib
  227. Codec ID                                 : S_HDMV/PGS
  228. Codec ID/Info                            : Picture based subtitle format used on BDs/HD-DVDs
  229. Duration                                 : 2 h 1 min
  230. Bit rate                                 : 30.3 kb/s
  231. Frame rate                               : 0.361 FPS
  232. Count of elements                        : 2630
  233. Stream size                              : 26.3 MiB (0%)
  234. Language                                 : French
  235. Default                                  : No
  236. Forced                                   : No
  237. Original source medium                   : Blu-ray
  238. Text #13
  239. ID                                       : 15
  240. ID in the original source medium         : 4613 (0x1205)
  241. Format                                   : PGS
  242. Muxing mode                              : zlib
  243. Codec ID                                 : S_HDMV/PGS
  244. Codec ID/Info                            : Picture based subtitle format used on BDs/HD-DVDs
  245. Duration                                 : 2 h 1 min
  246. Bit rate                                 : 373 b/s
  247. Frame rate                               : 0.007 FPS
  248. Count of elements                        : 48
  249. Stream size                              : 332 KiB (0%)
  250. Language                                 : French
  251. Default                                  : No
  252. Forced                                   : No
  253. Original source medium                   : Blu-ray
  254. Text #14
  255. ID                                       : 16
  256. ID in the original source medium         : 4614 (0x1206)
  257. Format                                   : PGS
  258. Muxing mode                              : zlib
  259. Codec ID                                 : S_HDMV/PGS
  260. Codec ID/Info                            : Picture based subtitle format used on BDs/HD-DVDs
  261. Duration                                 : 2 h 1 min
  262. Bit rate                                 : 34.1 kb/s
  263. Frame rate                               : 0.381 FPS
  264. Count of elements                        : 2776
  265. Stream size                              : 29.6 MiB (0%)
  266. Language                                 : French
  267. Default                                  : No
  268. Forced                                   : No
  269. Original source medium                   : Blu-ray
  270. Text #15
  271. ID                                       : 17
  272. ID in the original source medium         : 4614 (0x1206)
  273. Format                                   : PGS
  274. Muxing mode                              : zlib
  275. Codec ID                                 : S_HDMV/PGS
  276. Codec ID/Info                            : Picture based subtitle format used on BDs/HD-DVDs
  277. Duration                                 : 2 h 1 min
  278. Bit rate                                 : 487 b/s
  279. Frame rate                               : 0.007 FPS
  280. Count of elements                        : 54
  281. Stream size                              : 433 KiB (0%)
  282. Language                                 : French
  283. Default                                  : No
  284. Forced                                   : No
  285. Original source medium                   : Blu-ray
  286. Text #16
  287. ID                                       : 18
  288. ID in the original source medium         : 4615 (0x1207)
  289. Format                                   : PGS
  290. Muxing mode                              : zlib
  291. Codec ID                                 : S_HDMV/PGS
  292. Codec ID/Info                            : Picture based subtitle format used on BDs/HD-DVDs
  293. Duration                                 : 2 h 1 min
  294. Bit rate                                 : 30.3 kb/s
  295. Frame rate                               : 0.365 FPS
  296. Count of elements                        : 2660
  297. Stream size                              : 26.3 MiB (0%)
  298. Language                                 : Dutch
  299. Default                                  : No
  300. Forced                                   : No
  301. Original source medium                   : Blu-ray
  302. Text #17
  303. ID                                       : 19
  304. ID in the original source medium         : 4616 (0x1208)
  305. Format                                   : PGS
  306. Muxing mode                              : zlib
  307. Codec ID                                 : S_HDMV/PGS
  308. Codec ID/Info                            : Picture based subtitle format used on BDs/HD-DVDs
  309. Duration                                 : 2 h 1 min
  310. Bit rate                                 : 29.7 kb/s
  311. Frame rate                               : 0.372 FPS
  312. Count of elements                        : 2706
  313. Stream size                              : 25.8 MiB (0%)
  314. Language                                 : Norwegian
  315. Default                                  : No
  316. Forced                                   : No
  317. Original source medium                   : Blu-ray
  318. Text #18
  319. ID                                       : 20
  320. ID in the original source medium         : 4617 (0x1209)
  321. Format                                   : PGS
  322. Muxing mode                              : zlib
  323. Codec ID                                 : S_HDMV/PGS
  324. Codec ID/Info                            : Picture based subtitle format used on BDs/HD-DVDs
  325. Duration                                 : 2 h 1 min
  326. Bit rate                                 : 32.9 kb/s
  327. Frame rate                               : 0.379 FPS
  328. Count of elements                        : 2760
  329. Stream size                              : 28.5 MiB (0%)
  330. Language                                 : Portuguese
  331. Default                                  : No
  332. Forced                                   : No
  333. Original source medium                   : Blu-ray
  334. Text #19
  335. ID                                       : 21
  336. ID in the original source medium         : 4617 (0x1209)
  337. Format                                   : PGS
  338. Muxing mode                              : zlib
  339. Codec ID                                 : S_HDMV/PGS
  340. Codec ID/Info                            : Picture based subtitle format used on BDs/HD-DVDs
  341. Duration                                 : 2 h 1 min
  342. Bit rate                                 : 456 b/s
  343. Frame rate                               : 0.007 FPS
  344. Count of elements                        : 54
  345. Stream size                              : 406 KiB (0%)
  346. Language                                 : Portuguese
  347. Default                                  : No
  348. Forced                                   : No
  349. Original source medium                   : Blu-ray
  350. Text #20
  351. ID                                       : 22
  352. ID in the original source medium         : 4618 (0x120A)
  353. Format                                   : PGS
  354. Muxing mode                              : zlib
  355. Codec ID                                 : S_HDMV/PGS
  356. Codec ID/Info                            : Picture based subtitle format used on BDs/HD-DVDs
  357. Duration                                 : 2 h 1 min
  358. Bit rate                                 : 27.7 kb/s
  359. Frame rate                               : 0.370 FPS
  360. Count of elements                        : 2698
  361. Stream size                              : 24.1 MiB (0%)
  362. Language                                 : Finnish
  363. Default                                  : No
  364. Forced                                   : No
  365. Original source medium                   : Blu-ray
  366. Text #21
  367. ID                                       : 23
  368. ID in the original source medium         : 4619 (0x120B)
  369. Format                                   : PGS
  370. Muxing mode                              : zlib
  371. Codec ID                                 : S_HDMV/PGS
  372. Codec ID/Info                            : Picture based subtitle format used on BDs/HD-DVDs
  373. Duration                                 : 2 h 1 min
  374. Bit rate                                 : 30.2 kb/s
  375. Frame rate                               : 0.349 FPS
  376. Count of elements                        : 2542
  377. Stream size                              : 26.3 MiB (0%)
  378. Language                                 : Swedish
  379. Default                                  : No
  380. Forced                                   : No
  381. Original source medium                   : Blu-ray
  382. Text #22
  383. ID                                       : 24
  384. ID in the original source medium         : 4620 (0x120C)
  385. Format                                   : PGS
  386. Muxing mode                              : zlib
  387. Codec ID                                 : S_HDMV/PGS
  388. Codec ID/Info                            : Picture based subtitle format used on BDs/HD-DVDs
  389. Duration                                 : 2 h 2 min
  390. Bit rate                                 : 84.5 kb/s
  391. Frame rate                               : 0.684 FPS
  392. Count of elements                        : 5007
  393. Stream size                              : 73.8 MiB (0%)
  394. Language                                 : English
  395. Default                                  : No
  396. Forced                                   : No
  397. Original source medium                   : Blu-ray
  398. Text #23
  399. ID                                       : 25
  400. ID in the original source medium         : 4621 (0x120D)
  401. Format                                   : PGS
  402. Muxing mode                              : zlib
  403. Codec ID                                 : S_HDMV/PGS
  404. Codec ID/Info                            : Picture based subtitle format used on BDs/HD-DVDs
  405. Duration                                 : 2 h 2 min
  406. Bit rate                                 : 56.3 kb/s
  407. Frame rate                               : 0.623 FPS
  408. Count of elements                        : 4567
  409. Stream size                              : 49.2 MiB (0%)
  410. Language                                 : Spanish
  411. Default                                  : No
  412. Forced                                   : No
  413. Original source medium                   : Blu-ray
  414. Text #24
  415. ID                                       : 26
  416. ID in the original source medium         : 4622 (0x120E)
  417. Format                                   : PGS
  418. Muxing mode                              : zlib
  419. Codec ID                                 : S_HDMV/PGS
  420. Codec ID/Info                            : Picture based subtitle format used on BDs/HD-DVDs
  421. Duration                                 : 2 h 2 min
  422. Bit rate                                 : 65.7 kb/s
  423. Frame rate                               : 0.603 FPS
  424. Count of elements                        : 4423
  425. Stream size                              : 57.4 MiB (0%)
  426. Language                                 : Spanish
  427. Default                                  : No
  428. Forced                                   : No
  429. Original source medium                   : Blu-ray
  430. Text #25
  431. ID                                       : 27
  432. ID in the original source medium         : 4623 (0x120F)
  433. Format                                   : PGS
  434. Muxing mode                              : zlib
  435. Codec ID                                 : S_HDMV/PGS
  436. Codec ID/Info                            : Picture based subtitle format used on BDs/HD-DVDs
  437. Duration                                 : 2 h 2 min
  438. Bit rate                                 : 57.1 kb/s
  439. Frame rate                               : 0.676 FPS
  440. Count of elements                        : 4955
  441. Stream size                              : 49.9 MiB (0%)
  442. Language                                 : French
  443. Default                                  : No
  444. Forced                                   : No
  445. Original source medium                   : Blu-ray
  446. Text #26
  447. ID                                       : 28
  448. ID in the original source medium         : 4624 (0x1210)
  449. Format                                   : PGS
  450. Muxing mode                              : zlib
  451. Codec ID                                 : S_HDMV/PGS
  452. Codec ID/Info                            : Picture based subtitle format used on BDs/HD-DVDs
  453. Duration                                 : 2 h 2 min
  454. Bit rate                                 : 71.5 kb/s
  455. Frame rate                               : 0.669 FPS
  456. Count of elements                        : 4906
  457. Stream size                              : 62.5 MiB (0%)
  458. Language                                 : French
  459. Default                                  : No
  460. Forced                                   : No
  461. Original source medium                   : Blu-ray
  462. Text #27
  463. ID                                       : 29
  464. ID in the original source medium         : 4625 (0x1211)
  465. Format                                   : PGS
  466. Muxing mode                              : zlib
  467. Codec ID                                 : S_HDMV/PGS
  468. Codec ID/Info                            : Picture based subtitle format used on BDs/HD-DVDs
  469. Duration                                 : 2 h 2 min
  470. Bit rate                                 : 66.8 kb/s
  471. Frame rate                               : 0.625 FPS
  472. Count of elements                        : 4580
  473. Stream size                              : 58.4 MiB (0%)
  474. Language                                 : Portuguese
  475. Default                                  : No
  476. Forced                                   : No
  477. Original source medium                   : Blu-ray
  478. Menu
  479. 00:00:00.000                             : en:Chapter 01
  480. 00:05:54.437                             : en:Chapter 02
  481. 00:09:59.515                             : en:Chapter 03
  482. 00:16:32.950                             : en:Chapter 04
  483. 00:20:58.924                             : en:Chapter 05
  484. 00:28:05.475                             : en:Chapter 06
  485. 00:34:19.932                             : en:Chapter 07
  486. 00:39:09.889                             : en:Chapter 08
  487. 00:48:25.235                             : en:Chapter 09
  488. 00:58:32.509                             : en:Chapter 10
  489. 01:04:57.894                             : en:Chapter 11
  490. 01:11:02.049                             : en:Chapter 12
  491. 01:16:09.314                             : en:Chapter 13
  492. 01:26:59.923                             : en:Chapter 14
  493. 01:32:31.837                             : en:Chapter 15
  494. 01:40:46.040                             : en:Chapter 16
  495. 01:48:21.495                             : en:Chapter 17
  496. 01:53:56.079                             : en:Chapter 18
复制代码






                                       
                                       

                                       
                                       
                                       




回复

使用道具 举报

蓝光币
26
发表于 2022-7-31 01:05:05 | 显示全部楼层
楼主发贴辛苦了,谢谢楼主分享!我觉得蓝光电影网是注册对了!
回复 支持 反对

使用道具 举报

懒得打字嘛,点击右侧快捷回复 【右侧内容,后台自定义】
您需要登录后才可以回帖 登录 | 立即加入

本版积分规则

Archiver|小黑屋| 蓝光电影网 |网站地图

Copyright © 2021 Comsenz Inc. Powered by 蓝光电影网

蓝光电影网

本站内容由用户自主分享和转载自互联网,转载目的在于传递更多信息,并不代表本网赞同其观点和对其真实性负责。

如有侵权、违反国家法律政策行为,请联系我们,我们会第一时间及时清除和处理!

举报反馈邮箱:[email protected]

快速回复 返回顶部 返回列表