找回密码

蓝光电影网

查看: 185|回复: 4

[喜剧] 刺猬索尼克2 Sonic.the.Hedgehog.2.2022.1080p.BluRay.REMUX.AVC.DTS-HD.MA.TrueHD.7.1.Atmos-FGT 36.04GB

[复制链接]
蓝光币
1022
发表于 2022-7-30 20:05:51 | 显示全部楼层 |阅读模式


◎标  题 刺猬索尼克2
◎译  名 超音鼠大电影2(港) / 音速小子2(台)
◎片  名 Sonic the Hedgehog 2
◎年  代 2022
◎产  地 美国 / 日本
◎类  别 笑剧 / 行动 / 科幻 / 动画 / 冒险
◎语  言 英语
◎上映日期 2022(中国大陆) / 2022-04-08(美国)
◎IMDb评分 6.7/10 (27693人评价)
◎IMDb链接 https://www.imdb.com/title/tt12412888/
◎豆瓣链接 https://movie.douban.com/subject/35083986/
◎片  长 122分钟
◎导  演 杰夫·福勒 Jeff Fowler
◎编  剧 帕特里克·凯西 Patrick Casey
       乔什·米勒 Josh Miller
       约翰·惠廷顿 John Whittington
◎演  员 詹姆斯·麦斯登 James Marsden
       金·凯瑞 Jim Carrey
       本·施瓦茨 Ben Schwartz
       提卡·森普特 Tika Sumpter
       伊德里斯·艾尔巴 Idris Elba
       娜塔莎·罗斯韦尔 Natasha Rothwell
       亚当·佩里 Adam Pally
       谢默·摩尔 Shemar Moore
       李·马贾道布 Lee Majdoub
       科琳·欧肖内希 Colleen O'Shaughnessey
       梅洛德·诺西普·尼曼 Melody Nosipho Niemann
       汤姆·巴特勒 Tom Butler
       布拉德·卡利利莫库 Brad Kalilimoku
       杰夫·桑卡 Jeff Sanca
       伊丽莎白·鲍恩 Elizabeth Bowen
       多恩·列夫 Don Lew
       里斯·威廉姆斯 Rhys Williams
       西蒙·钱 Simon Chin
       弗雷泽·科比特 Fraser Corbett
       奎因·厄利 Quinn Early
       马库斯·奥雷里奥 Marcus Aurelio
       尼托·拉里奥萨 Nito Larioza
       迈克·鲁菲诺 Mike Rufino
       詹姆斯·兰索恩 James Ransone
       琼基·XL Junkie XL
◎简  介

  索尼克在绿丘镇安置下来以后,就急着要证实自己有才能成为一位实在的豪杰。当蛋头博士带着全新的同伴纳克鲁斯,又返来寻觅一块气力强大足以扑灭人类文化的翡翠的时辰,他就面临了另一个严重的考验。此次索尼克和他自己的仆从塔尔斯携手合作,一路踏上一场周游天下的冒险旅程,希望能在那块翡翠落入好人手中之前先找到它。
  1. Video
  2. ID                                       : 1
  3. ID in the original source medium         : 4113 (0x1011)
  4. Format                                   : AVC
  5. Format/Info                              : Advanced Video Codec
  6. Format profile                           : [email protected]
  7. Format settings                          : CABAC / 4 Ref Frames
  8. Format settings, CABAC                   : Yes
  9. Format settings, Reference frames        : 4 frames
  10. Codec ID                                 : V_MPEG4/ISO/AVC
  11. Duration                                 : 2 h 2 min
  12. Bit rate mode                            : Variable
  13. Bit rate                                 : 27.8 Mb/s
  14. Maximum bit rate                         : 30.2 Mb/s
  15. Width                                    : 1 920 pixels
  16. Height                                   : 1 080 pixels
  17. Display aspect ratio                     : 16:9
  18. Frame rate mode                          : Constant
  19. Frame rate                               : 23.976 (24000/1001/189150) FPS
  20. Color space                              : YUV
  21. Chroma subsampling                       : 4:2:0
  22. Bit depth                                : 8 bits
  23. Scan type                                : Progressive
  24. Bits/(Pixel*Frame)                       : 0.560
  25. Stream size                              : 23.8 GiB (66%)
  26. Language                                 : English
  27. Default                                  : No
  28. Forced                                   : No
  29. Original source medium                   : Blu-ray
  30. Audio #1
  31. ID                                       : 2
  32. ID in the original source medium         : 4352 (0x1100)
  33. Format                                   : MLP FBA 16-ch
  34. Format/Info                              : Meridian Lossless Packing FBA with 16-channel presentation
  35. Commercial name                          : Dolby TrueHD with Dolby Atmos
  36. Codec ID                                 : A_TRUEHD
  37. Duration                                 : 2 h 2 min
  38. Bit rate mode                            : Variable
  39. Bit rate                                 : 4 873 kb/s
  40. Maximum bit rate                         : 8 142 kb/s
  41. Channel(s)                               : 8 channels
  42. Channel layout                           : L R C LFE Ls Rs Lb Rb
  43. Sampling rate                            : 48.0 kHz
  44. Frame rate                               : 1 200.000 FPS (40 SPF)
  45. Bit depth                                : 24 bits
  46. Compression mode                         : Lossless
  47. Stream size                              : 4.16 GiB (12%)
  48. Title                                    : TrueHD 7.1 Atmos
  49. Language                                 : English
  50. Default                                  : Yes
  51. Forced                                   : No
  52. Original source medium                   : Blu-ray
  53. Number of dynamic objects                : 11
  54. Bed channel count                        : 1 channel
  55. Bed channel configuration                : LFE
  56. Audio #2
  57. ID                                       : 3
  58. Format                                   : DTS XLL
  59. Format/Info                              : Digital Theater Systems
  60. Commercial name                          : DTS-HD Master Audio
  61. Codec ID                                 : A_DTS
  62. Duration                                 : 2 h 2 min
  63. Bit rate mode                            : Variable
  64. Bit rate                                 : 4 282 kb/s
  65. Channel(s)                               : 8 channels
  66. Channel layout                           : C L R LFE Lb Rb Lss Rss
  67. Sampling rate                            : 48.0 kHz
  68. Frame rate                               : 93.750 FPS (512 SPF)
  69. Bit depth                                : 24 bits
  70. Compression mode                         : Lossless
  71. Stream size                              : 3.66 GiB (10%)
  72. Title                                    : DTS-HD MA 7.1
  73. Language                                 : English
  74. Default                                  : No
  75. Forced                                   : No
  76. Audio #3
  77. ID                                       : 4
  78. ID in the original source medium         : 4352 (0x1100)
  79. Format                                   : AC-3
  80. Format/Info                              : Audio Coding 3
  81. Commercial name                          : Dolby Digital
  82. Format settings                          : Dolby Surround EX
  83. Codec ID                                 : A_AC3
  84. Duration                                 : 2 h 2 min
  85. Bit rate mode                            : Constant
  86. Bit rate                                 : 640 kb/s
  87. Channel(s)                               : 6 channels
  88. Channel layout                           : L R C LFE Ls Rs
  89. Sampling rate                            : 48.0 kHz
  90. Frame rate                               : 31.250 FPS (1536 SPF)
  91. Compression mode                         : Lossy
  92. Stream size                              : 560 MiB (2%)
  93. Title                                    : DD 5.1
  94. Language                                 : English
  95. Service kind                             : Complete Main
  96. Default                                  : No
  97. Forced                                   : No
  98. Original source medium                   : Blu-ray
  99. Audio #4
  100. ID                                       : 5
  101. ID in the original source medium         : 4353 (0x1101)
  102. Format                                   : AC-3
  103. Format/Info                              : Audio Coding 3
  104. Commercial name                          : Dolby Digital
  105. Codec ID                                 : A_AC3
  106. Duration                                 : 2 h 2 min
  107. Bit rate mode                            : Constant
  108. Bit rate                                 : 640 kb/s
  109. Channel(s)                               : 6 channels
  110. Channel layout                           : L R C LFE Ls Rs
  111. Sampling rate                            : 48.0 kHz
  112. Frame rate                               : 31.250 FPS (1536 SPF)
  113. Compression mode                         : Lossy
  114. Stream size                              : 560 MiB (2%)
  115. Title                                    : DD 5.1
  116. Language                                 : English
  117. Service kind                             : Complete Main
  118. Default                                  : No
  119. Forced                                   : No
  120. Original source medium                   : Blu-ray
  121. Audio #5
  122. ID                                       : 6
  123. ID in the original source medium         : 4354 (0x1102)
  124. Format                                   : AC-3
  125. Format/Info                              : Audio Coding 3
  126. Commercial name                          : Dolby Digital
  127. Codec ID                                 : A_AC3
  128. Duration                                 : 2 h 2 min
  129. Bit rate mode                            : Constant
  130. Bit rate                                 : 640 kb/s
  131. Channel(s)                               : 6 channels
  132. Channel layout                           : L R C LFE Ls Rs
  133. Sampling rate                            : 48.0 kHz
  134. Frame rate                               : 31.250 FPS (1536 SPF)
  135. Compression mode                         : Lossy
  136. Stream size                              : 560 MiB (2%)
  137. Title                                    : DD 5.1
  138. Language                                 : Spanish
  139. Service kind                             : Complete Main
  140. Default                                  : No
  141. Forced                                   : No
  142. Original source medium                   : Blu-ray
  143. Audio #6
  144. ID                                       : 7
  145. ID in the original source medium         : 4355 (0x1103)
  146. Format                                   : AC-3
  147. Format/Info                              : Audio Coding 3
  148. Commercial name                          : Dolby Digital
  149. Codec ID                                 : A_AC3
  150. Duration                                 : 2 h 2 min
  151. Bit rate mode                            : Constant
  152. Bit rate                                 : 640 kb/s
  153. Channel(s)                               : 6 channels
  154. Channel layout                           : L R C LFE Ls Rs
  155. Sampling rate                            : 48.0 kHz
  156. Frame rate                               : 31.250 FPS (1536 SPF)
  157. Compression mode                         : Lossy
  158. Stream size                              : 560 MiB (2%)
  159. Title                                    : DD 5.1
  160. Language                                 : Spanish
  161. Service kind                             : Complete Main
  162. Default                                  : No
  163. Forced                                   : No
  164. Original source medium                   : Blu-ray
  165. Audio #7
  166. ID                                       : 8
  167. ID in the original source medium         : 4356 (0x1104)
  168. Format                                   : AC-3
  169. Format/Info                              : Audio Coding 3
  170. Commercial name                          : Dolby Digital
  171. Codec ID                                 : A_AC3
  172. Duration                                 : 2 h 2 min
  173. Bit rate mode                            : Constant
  174. Bit rate                                 : 640 kb/s
  175. Channel(s)                               : 6 channels
  176. Channel layout                           : L R C LFE Ls Rs
  177. Sampling rate                            : 48.0 kHz
  178. Frame rate                               : 31.250 FPS (1536 SPF)
  179. Compression mode                         : Lossy
  180. Stream size                              : 560 MiB (2%)
  181. Title                                    : DD 5.1
  182. Language                                 : French
  183. Service kind                             : Complete Main
  184. Default                                  : No
  185. Forced                                   : No
  186. Original source medium                   : Blu-ray
  187. Audio #8
  188. ID                                       : 9
  189. ID in the original source medium         : 4357 (0x1105)
  190. Format                                   : AC-3
  191. Format/Info                              : Audio Coding 3
  192. Commercial name                          : Dolby Digital
  193. Codec ID                                 : A_AC3
  194. Duration                                 : 2 h 2 min
  195. Bit rate mode                            : Constant
  196. Bit rate                                 : 640 kb/s
  197. Channel(s)                               : 6 channels
  198. Channel layout                           : L R C LFE Ls Rs
  199. Sampling rate                            : 48.0 kHz
  200. Frame rate                               : 31.250 FPS (1536 SPF)
  201. Compression mode                         : Lossy
  202. Stream size                              : 560 MiB (2%)
  203. Title                                    : DD 5.1
  204. Language                                 : French
  205. Service kind                             : Complete Main
  206. Default                                  : No
  207. Forced                                   : No
  208. Original source medium                   : Blu-ray
  209. Audio #9
  210. ID                                       : 10
  211. ID in the original source medium         : 4358 (0x1106)
  212. Format                                   : AC-3
  213. Format/Info                              : Audio Coding 3
  214. Commercial name                          : Dolby Digital
  215. Codec ID                                 : A_AC3
  216. Duration                                 : 2 h 2 min
  217. Bit rate mode                            : Constant
  218. Bit rate                                 : 640 kb/s
  219. Channel(s)                               : 6 channels
  220. Channel layout                           : L R C LFE Ls Rs
  221. Sampling rate                            : 48.0 kHz
  222. Frame rate                               : 31.250 FPS (1536 SPF)
  223. Compression mode                         : Lossy
  224. Stream size                              : 560 MiB (2%)
  225. Title                                    : DD 5.1
  226. Language                                 : Portuguese
  227. Service kind                             : Complete Main
  228. Default                                  : No
  229. Forced                                   : No
  230. Original source medium                   : Blu-ray
  231. Audio #10
  232. ID                                       : 11
  233. ID in the original source medium         : 4359 (0x1107)
  234. Format                                   : AC-3
  235. Format/Info                              : Audio Coding 3
  236. Commercial name                          : Dolby Digital
  237. Codec ID                                 : A_AC3
  238. Duration                                 : 2 h 2 min
  239. Bit rate mode                            : Constant
  240. Bit rate                                 : 224 kb/s
  241. Channel(s)                               : 2 channels
  242. Channel layout                           : L R
  243. Sampling rate                            : 48.0 kHz
  244. Frame rate                               : 31.250 FPS (1536 SPF)
  245. Compression mode                         : Lossy
  246. Stream size                              : 196 MiB (0%)
  247. Title                                    : DD 2.0
  248. Language                                 : English
  249. Service kind                             : Complete Main
  250. Default                                  : No
  251. Forced                                   : No
  252. Original source medium                   : Blu-ray
  253. Text #1
  254. ID                                       : 12
  255. Format                                   : UTF-8
  256. Codec ID                                 : S_TEXT/UTF8
  257. Codec ID/Info                            : UTF-8 Plain Text
  258. Duration                                 : 42 min 25 s
  259. Bit rate                                 : 0 b/s
  260. Frame rate                               : 0.003 FPS
  261. Count of elements                        : 7
  262. Stream size                              : 171 Bytes (0%)
  263. Title                                    : FORCED
  264. Language                                 : English
  265. Default                                  : No
  266. Forced                                   : Yes
  267. Text #2
  268. ID                                       : 13
  269. Format                                   : UTF-8
  270. Codec ID                                 : S_TEXT/UTF8
  271. Codec ID/Info                            : UTF-8 Plain Text
  272. Duration                                 : 1 h 52 min
  273. Bit rate                                 : 59 b/s
  274. Frame rate                               : 0.246 FPS
  275. Count of elements                        : 1655
  276. Stream size                              : 48.8 KiB (0%)
  277. Language                                 : English
  278. Default                                  : Yes
  279. Forced                                   : No
  280. Text #3
  281. ID                                       : 14
  282. Format                                   : UTF-8
  283. Codec ID                                 : S_TEXT/UTF8
  284. Codec ID/Info                            : UTF-8 Plain Text
  285. Duration                                 : 1 h 52 min
  286. Bit rate                                 : 67 b/s
  287. Frame rate                               : 0.295 FPS
  288. Count of elements                        : 1985
  289. Stream size                              : 55.7 KiB (0%)
  290. Title                                    : SDH
  291. Language                                 : English
  292. Default                                  : No
  293. Forced                                   : No
  294. Text #4
  295. ID                                       : 15
  296. ID in the original source medium         : 4608 (0x1200)
  297. Format                                   : PGS
  298. Muxing mode                              : zlib
  299. Codec ID                                 : S_HDMV/PGS
  300. Codec ID/Info                            : Picture based subtitle format used on BDs/HD-DVDs
  301. Duration                                 : 1 h 52 min
  302. Bit rate                                 : 37.3 kb/s
  303. Frame rate                               : 0.407 FPS
  304. Count of elements                        : 2736
  305. Stream size                              : 29.9 MiB (0%)
  306. Title                                    : FORCED
  307. Language                                 : English
  308. Default                                  : No
  309. Forced                                   : Yes
  310. Original source medium                   : Blu-ray
  311. Text #5
  312. ID                                       : 16
  313. ID in the original source medium         : 4608 (0x1200)
  314. Format                                   : PGS
  315. Muxing mode                              : zlib
  316. Codec ID                                 : S_HDMV/PGS
  317. Codec ID/Info                            : Picture based subtitle format used on BDs/HD-DVDs
  318. Duration                                 : 42 min 25 s
  319. Bit rate                                 : 264 b/s
  320. Frame rate                               : 0.006 FPS
  321. Count of elements                        : 14
  322. Stream size                              : 82.2 KiB (0%)
  323. Language                                 : English
  324. Default                                  : No
  325. Forced                                   : No
  326. Original source medium                   : Blu-ray
  327. Text #6
  328. ID                                       : 17
  329. ID in the original source medium         : 4609 (0x1201)
  330. Format                                   : PGS
  331. Muxing mode                              : zlib
  332. Codec ID                                 : S_HDMV/PGS
  333. Codec ID/Info                            : Picture based subtitle format used on BDs/HD-DVDs
  334. Duration                                 : 1 h 52 min
  335. Bit rate                                 : 48.0 kb/s
  336. Frame rate                               : 0.595 FPS
  337. Count of elements                        : 3998
  338. Stream size                              : 38.4 MiB (0%)
  339. Title                                    : SDH
  340. Language                                 : English
  341. Default                                  : No
  342. Forced                                   : No
  343. Original source medium                   : Blu-ray
  344. Text #7
  345. ID                                       : 18
  346. ID in the original source medium         : 4610 (0x1202)
  347. Format                                   : PGS
  348. Muxing mode                              : zlib
  349. Codec ID                                 : S_HDMV/PGS
  350. Codec ID/Info                            : Picture based subtitle format used on BDs/HD-DVDs
  351. Duration                                 : 2 h 1 min
  352. Bit rate                                 : 29.4 kb/s
  353. Frame rate                               : 0.352 FPS
  354. Count of elements                        : 2564
  355. Stream size                              : 25.5 MiB (0%)
  356. Language                                 : Danish
  357. Default                                  : No
  358. Forced                                   : No
  359. Original source medium                   : Blu-ray
  360. Text #8
  361. ID                                       : 19
  362. ID in the original source medium         : 4611 (0x1203)
  363. Format                                   : PGS
  364. Muxing mode                              : zlib
  365. Codec ID                                 : S_HDMV/PGS
  366. Codec ID/Info                            : Picture based subtitle format used on BDs/HD-DVDs
  367. Duration                                 : 2 h 1 min
  368. Bit rate                                 : 34.5 kb/s
  369. Frame rate                               : 0.378 FPS
  370. Count of elements                        : 2756
  371. Stream size                              : 29.9 MiB (0%)
  372. Language                                 : Spanish
  373. Default                                  : No
  374. Forced                                   : No
  375. Original source medium                   : Blu-ray
  376. Text #9
  377. ID                                       : 20
  378. ID in the original source medium         : 4611 (0x1203)
  379. Format                                   : PGS
  380. Muxing mode                              : zlib
  381. Codec ID                                 : S_HDMV/PGS
  382. Codec ID/Info                            : Picture based subtitle format used on BDs/HD-DVDs
  383. Duration                                 : 2 h 1 min
  384. Bit rate                                 : 494 b/s
  385. Frame rate                               : 0.008 FPS
  386. Count of elements                        : 58
  387. Stream size                              : 440 KiB (0%)
  388. Language                                 : Spanish
  389. Default                                  : No
  390. Forced                                   : No
  391. Original source medium                   : Blu-ray
  392. Text #10
  393. ID                                       : 21
  394. ID in the original source medium         : 4612 (0x1204)
  395. Format                                   : PGS
  396. Muxing mode                              : zlib
  397. Codec ID                                 : S_HDMV/PGS
  398. Codec ID/Info                            : Picture based subtitle format used on BDs/HD-DVDs
  399. Duration                                 : 2 h 1 min
  400. Bit rate                                 : 32.1 kb/s
  401. Frame rate                               : 0.362 FPS
  402. Count of elements                        : 2638
  403. Stream size                              : 27.9 MiB (0%)
  404. Language                                 : Spanish
  405. Default                                  : No
  406. Forced                                   : No
  407. Original source medium                   : Blu-ray
  408. Text #11
  409. ID                                       : 22
  410. ID in the original source medium         : 4612 (0x1204)
  411. Format                                   : PGS
  412. Muxing mode                              : zlib
  413. Codec ID                                 : S_HDMV/PGS
  414. Codec ID/Info                            : Picture based subtitle format used on BDs/HD-DVDs
  415. Duration                                 : 2 h 1 min
  416. Bit rate                                 : 422 b/s
  417. Frame rate                               : 0.007 FPS
  418. Count of elements                        : 50
  419. Stream size                              : 376 KiB (0%)
  420. Language                                 : Spanish
  421. Default                                  : No
  422. Forced                                   : No
  423. Original source medium                   : Blu-ray
  424. Text #12
  425. ID                                       : 23
  426. ID in the original source medium         : 4613 (0x1205)
  427. Format                                   : PGS
  428. Muxing mode                              : zlib
  429. Codec ID                                 : S_HDMV/PGS
  430. Codec ID/Info                            : Picture based subtitle format used on BDs/HD-DVDs
  431. Duration                                 : 2 h 1 min
  432. Bit rate                                 : 30.3 kb/s
  433. Frame rate                               : 0.361 FPS
  434. Count of elements                        : 2630
  435. Stream size                              : 26.3 MiB (0%)
  436. Language                                 : French
  437. Default                                  : No
  438. Forced                                   : No
  439. Original source medium                   : Blu-ray
  440. Text #13
  441. ID                                       : 24
  442. ID in the original source medium         : 4613 (0x1205)
  443. Format                                   : PGS
  444. Muxing mode                              : zlib
  445. Codec ID                                 : S_HDMV/PGS
  446. Codec ID/Info                            : Picture based subtitle format used on BDs/HD-DVDs
  447. Duration                                 : 2 h 1 min
  448. Bit rate                                 : 373 b/s
  449. Frame rate                               : 0.007 FPS
  450. Count of elements                        : 48
  451. Stream size                              : 332 KiB (0%)
  452. Language                                 : French
  453. Default                                  : No
  454. Forced                                   : No
  455. Original source medium                   : Blu-ray
  456. Text #14
  457. ID                                       : 25
  458. ID in the original source medium         : 4614 (0x1206)
  459. Format                                   : PGS
  460. Muxing mode                              : zlib
  461. Codec ID                                 : S_HDMV/PGS
  462. Codec ID/Info                            : Picture based subtitle format used on BDs/HD-DVDs
  463. Duration                                 : 2 h 1 min
  464. Bit rate                                 : 34.1 kb/s
  465. Frame rate                               : 0.381 FPS
  466. Count of elements                        : 2776
  467. Stream size                              : 29.6 MiB (0%)
  468. Language                                 : French
  469. Default                                  : No
  470. Forced                                   : No
  471. Original source medium                   : Blu-ray
  472. Text #15
  473. ID                                       : 26
  474. ID in the original source medium         : 4614 (0x1206)
  475. Format                                   : PGS
  476. Muxing mode                              : zlib
  477. Codec ID                                 : S_HDMV/PGS
  478. Codec ID/Info                            : Picture based subtitle format used on BDs/HD-DVDs
  479. Duration                                 : 2 h 1 min
  480. Bit rate                                 : 487 b/s
  481. Frame rate                               : 0.007 FPS
  482. Count of elements                        : 54
  483. Stream size                              : 433 KiB (0%)
  484. Language                                 : French
  485. Default                                  : No
  486. Forced                                   : No
  487. Original source medium                   : Blu-ray
  488. Text #16
  489. ID                                       : 27
  490. ID in the original source medium         : 4615 (0x1207)
  491. Format                                   : PGS
  492. Muxing mode                              : zlib
  493. Codec ID                                 : S_HDMV/PGS
  494. Codec ID/Info                            : Picture based subtitle format used on BDs/HD-DVDs
  495. Duration                                 : 2 h 1 min
  496. Bit rate                                 : 30.3 kb/s
  497. Frame rate                               : 0.365 FPS
  498. Count of elements                        : 2660
  499. Stream size                              : 26.3 MiB (0%)
  500. Language                                 : Dutch
  501. Default                                  : No
  502. Forced                                   : No
  503. Original source medium                   : Blu-ray
  504. Text #17
  505. ID                                       : 28
  506. ID in the original source medium         : 4616 (0x1208)
  507. Format                                   : PGS
  508. Muxing mode                              : zlib
  509. Codec ID                                 : S_HDMV/PGS
  510. Codec ID/Info                            : Picture based subtitle format used on BDs/HD-DVDs
  511. Duration                                 : 2 h 1 min
  512. Bit rate                                 : 29.7 kb/s
  513. Frame rate                               : 0.372 FPS
  514. Count of elements                        : 2706
  515. Stream size                              : 25.8 MiB (0%)
  516. Language                                 : Norwegian
  517. Default                                  : No
  518. Forced                                   : No
  519. Original source medium                   : Blu-ray
  520. Text #18
  521. ID                                       : 29
  522. ID in the original source medium         : 4617 (0x1209)
  523. Format                                   : PGS
  524. Muxing mode                              : zlib
  525. Codec ID                                 : S_HDMV/PGS
  526. Codec ID/Info                            : Picture based subtitle format used on BDs/HD-DVDs
  527. Duration                                 : 2 h 1 min
  528. Bit rate                                 : 32.9 kb/s
  529. Frame rate                               : 0.379 FPS
  530. Count of elements                        : 2760
  531. Stream size                              : 28.5 MiB (0%)
  532. Language                                 : Portuguese
  533. Default                                  : No
  534. Forced                                   : No
  535. Original source medium                   : Blu-ray
  536. Text #19
  537. ID                                       : 30
  538. ID in the original source medium         : 4617 (0x1209)
  539. Format                                   : PGS
  540. Muxing mode                              : zlib
  541. Codec ID                                 : S_HDMV/PGS
  542. Codec ID/Info                            : Picture based subtitle format used on BDs/HD-DVDs
  543. Duration                                 : 2 h 1 min
  544. Bit rate                                 : 456 b/s
  545. Frame rate                               : 0.007 FPS
  546. Count of elements                        : 54
  547. Stream size                              : 406 KiB (0%)
  548. Language                                 : Portuguese
  549. Default                                  : No
  550. Forced                                   : No
  551. Original source medium                   : Blu-ray
  552. Text #20
  553. ID                                       : 31
  554. ID in the original source medium         : 4618 (0x120A)
  555. Format                                   : PGS
  556. Muxing mode                              : zlib
  557. Codec ID                                 : S_HDMV/PGS
  558. Codec ID/Info                            : Picture based subtitle format used on BDs/HD-DVDs
  559. Duration                                 : 2 h 1 min
  560. Bit rate                                 : 27.7 kb/s
  561. Frame rate                               : 0.370 FPS
  562. Count of elements                        : 2698
  563. Stream size                              : 24.1 MiB (0%)
  564. Language                                 : Finnish
  565. Default                                  : No
  566. Forced                                   : No
  567. Original source medium                   : Blu-ray
  568. Text #21
  569. ID                                       : 32
  570. ID in the original source medium         : 4619 (0x120B)
  571. Format                                   : PGS
  572. Muxing mode                              : zlib
  573. Codec ID                                 : S_HDMV/PGS
  574. Codec ID/Info                            : Picture based subtitle format used on BDs/HD-DVDs
  575. Duration                                 : 2 h 1 min
  576. Bit rate                                 : 30.2 kb/s
  577. Frame rate                               : 0.349 FPS
  578. Count of elements                        : 2542
  579. Stream size                              : 26.3 MiB (0%)
  580. Language                                 : Swedish
  581. Default                                  : No
  582. Forced                                   : No
  583. Original source medium                   : Blu-ray
  584. Text #22
  585. ID                                       : 33
  586. ID in the original source medium         : 4620 (0x120C)
  587. Format                                   : PGS
  588. Muxing mode                              : zlib
  589. Codec ID                                 : S_HDMV/PGS
  590. Codec ID/Info                            : Picture based subtitle format used on BDs/HD-DVDs
  591. Duration                                 : 2 h 2 min
  592. Bit rate                                 : 84.5 kb/s
  593. Frame rate                               : 0.684 FPS
  594. Count of elements                        : 5007
  595. Stream size                              : 73.8 MiB (0%)
  596. Language                                 : English
  597. Default                                  : No
  598. Forced                                   : No
  599. Original source medium                   : Blu-ray
  600. Text #23
  601. ID                                       : 34
  602. ID in the original source medium         : 4621 (0x120D)
  603. Format                                   : PGS
  604. Muxing mode                              : zlib
  605. Codec ID                                 : S_HDMV/PGS
  606. Codec ID/Info                            : Picture based subtitle format used on BDs/HD-DVDs
  607. Duration                                 : 2 h 2 min
  608. Bit rate                                 : 56.3 kb/s
  609. Frame rate                               : 0.623 FPS
  610. Count of elements                        : 4567
  611. Stream size                              : 49.2 MiB (0%)
  612. Language                                 : Spanish
  613. Default                                  : No
  614. Forced                                   : No
  615. Original source medium                   : Blu-ray
  616. Text #24
  617. ID                                       : 35
  618. ID in the original source medium         : 4622 (0x120E)
  619. Format                                   : PGS
  620. Muxing mode                              : zlib
  621. Codec ID                                 : S_HDMV/PGS
  622. Codec ID/Info                            : Picture based subtitle format used on BDs/HD-DVDs
  623. Duration                                 : 2 h 2 min
  624. Bit rate                                 : 65.7 kb/s
  625. Frame rate                               : 0.603 FPS
  626. Count of elements                        : 4423
  627. Stream size                              : 57.4 MiB (0%)
  628. Language                                 : Spanish
  629. Default                                  : No
  630. Forced                                   : No
  631. Original source medium                   : Blu-ray
  632. Text #25
  633. ID                                       : 36
  634. ID in the original source medium         : 4623 (0x120F)
  635. Format                                   : PGS
  636. Muxing mode                              : zlib
  637. Codec ID                                 : S_HDMV/PGS
  638. Codec ID/Info                            : Picture based subtitle format used on BDs/HD-DVDs
  639. Duration                                 : 2 h 2 min
  640. Bit rate                                 : 57.1 kb/s
  641. Frame rate                               : 0.676 FPS
  642. Count of elements                        : 4955
  643. Stream size                              : 49.9 MiB (0%)
  644. Language                                 : French
  645. Default                                  : No
  646. Forced                                   : No
  647. Original source medium                   : Blu-ray
  648. Text #26
  649. ID                                       : 37
  650. ID in the original source medium         : 4624 (0x1210)
  651. Format                                   : PGS
  652. Muxing mode                              : zlib
  653. Codec ID                                 : S_HDMV/PGS
  654. Codec ID/Info                            : Picture based subtitle format used on BDs/HD-DVDs
  655. Duration                                 : 2 h 2 min
  656. Bit rate                                 : 71.5 kb/s
  657. Frame rate                               : 0.669 FPS
  658. Count of elements                        : 4906
  659. Stream size                              : 62.5 MiB (0%)
  660. Language                                 : French
  661. Default                                  : No
  662. Forced                                   : No
  663. Original source medium                   : Blu-ray
  664. Text #27
  665. ID                                       : 38
  666. ID in the original source medium         : 4625 (0x1211)
  667. Format                                   : PGS
  668. Muxing mode                              : zlib
  669. Codec ID                                 : S_HDMV/PGS
  670. Codec ID/Info                            : Picture based subtitle format used on BDs/HD-DVDs
  671. Duration                                 : 2 h 2 min
  672. Bit rate                                 : 66.8 kb/s
  673. Frame rate                               : 0.625 FPS
  674. Count of elements                        : 4580
  675. Stream size                              : 58.4 MiB (0%)
  676. Language                                 : Portuguese
  677. Default                                  : No
  678. Forced                                   : No
  679. Original source medium                   : Blu-ray
  680. Menu
  681. 00:00:00.000                             : en:Chapter 01
  682. 00:05:54.437                             : en:Chapter 02
  683. 00:09:59.515                             : en:Chapter 03
  684. 00:16:32.950                             : en:Chapter 04
  685. 00:20:58.924                             : en:Chapter 05
  686. 00:28:05.475                             : en:Chapter 06
  687. 00:34:19.932                             : en:Chapter 07
  688. 00:39:09.889                             : en:Chapter 08
  689. 00:48:25.235                             : en:Chapter 09
  690. 00:58:32.509                             : en:Chapter 10
  691. 01:04:57.894                             : en:Chapter 11
  692. 01:11:02.049                             : en:Chapter 12
  693. 01:16:09.314                             : en:Chapter 13
  694. 01:26:59.923                             : en:Chapter 14
  695. 01:32:31.837                             : en:Chapter 15
  696. 01:40:46.040                             : en:Chapter 16
  697. 01:48:21.495                             : en:Chapter 17
  698. 01:53:56.079                             : en:Chapter 18
复制代码







                                       
                                       

                                       
                                       
                                       




回复

使用道具 举报

蓝光币
335
发表于 2022-7-31 10:20:35 | 显示全部楼层

楼主,我太崇拜你了!我想我是一天也不能离开蓝光电影网。
回复 支持 反对

使用道具 举报

蓝光币
132
发表于 2022-7-31 17:59:52 | 显示全部楼层

其实我一直觉得楼主的品味不错!呵呵!蓝光电影网太棒了!
回复 支持 反对

使用道具 举报

蓝光币
1470
发表于 2022-7-31 18:21:28 | 显示全部楼层

楼主太厉害了!楼主,电影应该很好看我觉得蓝光电影网真是个好地方!
回复 支持 反对

使用道具 举报

蓝光币
297
发表于 2022-7-31 19:56:07 | 显示全部楼层

楼主太厉害了!楼主,电影应该很好看我觉得蓝光电影网真是个好地方!
回复 支持 反对

使用道具 举报

懒得打字嘛,点击右侧快捷回复 【右侧内容,后台自定义】
您需要登录后才可以回帖 登录 | 立即加入

本版积分规则

Archiver|小黑屋| 蓝光电影网 |网站地图

Copyright © 2021 Comsenz Inc. Powered by 蓝光电影网

蓝光电影网

本站内容由用户自主分享和转载自互联网,转载目的在于传递更多信息,并不代表本网赞同其观点和对其真实性负责。

如有侵权、违反国家法律政策行为,请联系我们,我们会第一时间及时清除和处理!

举报反馈邮箱:[email protected]

快速回复 返回顶部 返回列表