找回密码

蓝光电影网

查看: 46|回复: 2

[剧情] 男人 Men.2022.720p.BluRay.x264.DTS-MT 3.27GB

[复制链接]
蓝光币
886
发表于 2022-7-30 20:46:12 | 显示全部楼层 |阅读模式


◎标  题 汉子
◎译  名 们(台) / 人类 / 人们 / 汉子们 / 人隐士海
◎片  名 Men
◎年  代 2022
◎产  地 英国
◎类  别 剧情 / 科幻 / 可骇
◎语  言 英语
◎上映日期 2022-05-20(美国)
◎IMDb评分 6.3/10 (6372人评价)
◎IMDb链接 https://www.imdb.com/title/tt13841850/
◎豆瓣评分 6.6/10 (398人评价)
◎豆瓣链接 https://movie.douban.com/subject/35341588/
◎片  长 100分钟
◎导  演 亚历克斯·加兰 Alex Garland
◎编  剧 亚历克斯·加兰 Alex Garland
◎演  员 杰西·巴克利 Jessie Buckley
       罗里·金尼尔 Rory Kinnear
       帕帕·厄希度 Paapa Essiedu
       盖尔·兰金 Gayle Rankin
       莎拉·托米 Sarah Twomey
       扎克·罗瑟拉-奥克斯利 Zak Rothera-Oxley
       水野索诺娅 Sonoya Mizuno
◎简  介

  丈夫过世以后,哈珀(杰西巴克利 饰)来到一处美丽的英国村落疗伤,但是,这里的树林中似乎有某人或某物在跟踪她,这些潜藏在她心中隐约的恐惧,随着时候逐步转酿成具体的噩梦……
  1. Video
  2. ID                                       : 1
  3. Format                                   : AVC
  4. Format/Info                              : Advanced Video Codec
  5. Format profile                           : [email protected]
  6. Format settings                          : CABAC / 9 Ref Frames
  7. Format settings, CABAC                   : Yes
  8. Format settings, Reference frames        : 9 frames
  9. Codec ID                                 : V_MPEG4/ISO/AVC
  10. Duration                                 : 1 h 40 min
  11. Bit rate                                 : 3 169 kb/s
  12. Width                                    : 1 280 pixels
  13. Height                                   : 692 pixels
  14. Display aspect ratio                     : 1.85:1
  15. Frame rate mode                          : Constant
  16. Frame rate                               : 23.976 (24000/1001/189150) FPS
  17. Color space                              : YUV
  18. Chroma subsampling                       : 4:2:0
  19. Bit depth                                : 8 bits
  20. Scan type                                : Progressive
  21. Bits/(Pixel*Frame)                       : 0.149
  22. Stream size                              : 2.22 GiB (68%)
  23. Writing library                          : x264 core 157 r2938 2b00a84 [email protected] Mod
  24. Encoding settings                        : cabac=1 / ref=9 / deblock=1:-3:-3 / analyse=0x3:0x133 / me=umh / subme=10 / psy=1 / psy_rd=1.05:0.00 / mixed_ref=1 / me_range=32 / chroma_me=1 / trellis=2 / 8x8dct=1 / cqm=0 / deadzone=21,11 / fast_pskip=0 / chroma_qp_offset=-2 / threads=12 / lookahead_threads=2 / sliced_threads=0 / nr=0 / decimate=0 / interlaced=0 / bluray_compat=0 / constrained_intra=0 / bframes=8 / b_pyramid=2 / b_adapt=2 / b_bias=0 / direct=3 / weightb=1 / open_gop=0 / weightp=2 / keyint=250 / keyint_min=24 / scenecut=40 / intra_refresh=0 / rc_lookahead=250 / rc=crf / mbtree=0 / crf=16.8 / qcomp=0.60 / qpmin=0 / qpmax=69 / qpstep=4 / vbv_maxrate=62500 / vbv_bufsize=78125 / crf_max=0.0 / nal_hrd=none / filler=0 / ip_ratio=1.30 / pb_ratio=1.20 / aq=3:0.80
  25. Language                                 : English
  26. Default                                  : Yes
  27. Forced                                   : No
  28. Color range                              : Limited
  29. Color primaries                          : BT.709
  30. Matrix coefficients                      : BT.709
  31. Audio
  32. ID                                       : 2
  33. Format                                   : DTS
  34. Format/Info                              : Digital Theater Systems
  35. Codec ID                                 : A_DTS
  36. Duration                                 : 1 h 40 min
  37. Bit rate mode                            : Constant
  38. Bit rate                                 : 1 509 kb/s
  39. Channel(s)                               : 6 channels
  40. Channel layout                           : C L R Ls Rs LFE
  41. Sampling rate                            : 48.0 kHz
  42. Frame rate                               : 93.750 FPS (512 SPF)
  43. Bit depth                                : 24 bits
  44. Compression mode                         : Lossy
  45. Stream size                              : 1.06 GiB (32%)
  46. Language                                 : English
  47. Default                                  : Yes
  48. Forced                                   : No
  49. Text #1
  50. ID                                       : 3
  51. Format                                   : UTF-8
  52. Codec ID                                 : S_TEXT/UTF8
  53. Codec ID/Info                            : UTF-8 Plain Text
  54. Duration                                 : 1 h 37 min
  55. Bit rate                                 : 28 b/s
  56. Frame rate                               : 0.130 FPS
  57. Count of elements                        : 760
  58. Stream size                              : 20.6 KiB (0%)
  59. Language                                 : English
  60. Default                                  : Yes
  61. Forced                                   : No
  62. Text #2
  63. ID                                       : 4
  64. Format                                   : UTF-8
  65. Codec ID                                 : S_TEXT/UTF8
  66. Codec ID/Info                            : UTF-8 Plain Text
  67. Duration                                 : 1 h 37 min
  68. Bit rate                                 : 37 b/s
  69. Frame rate                               : 0.176 FPS
  70. Count of elements                        : 1033
  71. Stream size                              : 26.8 KiB (0%)
  72. Title                                    : SDH
  73. Language                                 : English
  74. Default                                  : No
  75. Forced                                   : No
  76. Menu
  77. 00:00:00.000                             : en:Chapter 01
  78. 00:04:54.044                             : en:Chapter 02
  79. 00:11:59.052                             : en:Chapter 03
  80. 00:18:28.232                             : en:Chapter 04
  81. 00:26:45.729                             : en:Chapter 05
  82. 00:30:58.815                             : en:Chapter 06
  83. 00:36:37.779                             : en:Chapter 07
  84. 00:42:47.315                             : en:Chapter 08
  85. 00:50:44.124                             : en:Chapter 09
  86. 00:55:47.427                             : en:Chapter 10
  87. 01:02:08.475                             : en:Chapter 11
  88. 01:07:06.522                             : en:Chapter 12
  89. 01:14:47.692                             : en:Chapter 13
  90. 01:22:11.343                             : en:Chapter 14
  91. 01:24:54.172                             : en:Chapter 15
  92. 01:34:46.139                             : en:Chapter 16
复制代码







                                       
                                       

                                       
                                       
                                       




回复

使用道具 举报

蓝光币
36
发表于 2022-7-30 21:54:32 | 显示全部楼层

这东西我收了!谢谢楼主!蓝光电影网真好!
回复 支持 反对

使用道具 举报

蓝光币
539
发表于 2022-7-31 09:21:47 | 显示全部楼层
楼主发贴辛苦了,谢谢楼主分享!我觉得蓝光电影网是注册对了!
回复 支持 反对

使用道具 举报

懒得打字嘛,点击右侧快捷回复 【右侧内容,后台自定义】
您需要登录后才可以回帖 登录 | 立即加入

本版积分规则

Archiver|小黑屋| 蓝光电影网 |网站地图

Copyright © 2021 Comsenz Inc. Powered by 蓝光电影网

蓝光电影网

本站内容由用户自主分享和转载自互联网,转载目的在于传递更多信息,并不代表本网赞同其观点和对其真实性负责。

如有侵权、违反国家法律政策行为,请联系我们,我们会第一时间及时清除和处理!

举报反馈邮箱:[email protected]

快速回复 返回顶部 返回列表