找回密码

蓝光电影网

查看: 173|回复: 1

[2160p-WEB] 青龙偃月刀[国语配音/中文字幕].Knights.of.Valour.2021.2160p.WEB-DL.H265.AAC-MOMOWEB 8.10GB

[复制链接]
蓝光币
7
发表于 2022-7-31 01:54:14 | 显示全部楼层 |阅读模式


◎标  题 青龙偃月刀
◎年  代 2021
◎产  地 中国大陆
◎类  别 行动 / 战争
◎语  言 汉语普通话
◎上映日期 2021-02-11(中国大陆)
◎IMDb链接 https://www.imdb.com/title//
◎豆瓣评分 3.6/10 (1310人评价)
◎豆瓣链接 https://movie.douban.com/subject/35354409/
◎片  长 80分钟
◎导  演 代艺霖 Yilin Dai
◎演  员 关智斌 Kenny Kwan
       陆树铭 Shuming Lu
       晋松 Song Jin
       周航 Hang Zhou
◎简  介
  吴蜀同盟破裂,一代名将关羽(陆树铭 饰)败走麦城。蜀国君主刘备(董彦麟饰)欲亲征为二弟复仇,由吴将潘璋(晋松 饰)镇守的夷陵水寨是伐吴必经之路,关羽次子关兴(关智斌 饰)为了可以参战复仇历经各类盘曲和磨难,终极手刃仇人夺回青龙偃月刀。
  1. ##### MediaInfo ######
  2. General
  3. Unique ID                                : 33378652611514376355080876649563430332 (0x191C7EA1D3AB2DC0DFDB4F8C74861DBC)
  4. Complete name                            : Knights.of.Valour.2021.2160p.WEB-DL.H265.AAC-MOMOWEB.mkv
  5. Format                                   : Matroska
  6. Format version                           : Version 4
  7. File size                                : 8.09 GiB
  8. Duration                                 : 1 h 19 min
  9. Overall bit rate                         : 14.5 Mb/s
  10. Encoded date                             : UTC 2021-07-13 14:50:31
  11. Writing application                      : mkvmerge v58.0.0 ('Supper's Ready') 64-bit
  12. Writing library                          : libebml v1.4.2 + libmatroska v1.6.4
  13. Video
  14. ID                                       : 1
  15. Format                                   : HEVC
  16. Format/Info                              : High Efficiency Video Coding
  17. Format profile                           : [email protected]@High
  18. Codec ID                                 : V_MPEGH/ISO/HEVC
  19. Duration                                 : 1 h 19 min
  20. Bit rate                                 : 14.3 Mb/s
  21. Width                                    : 3 840 pixels
  22. Height                                   : 1 320 pixels
  23. Display aspect ratio                     : 2.909
  24. Frame rate mode                          : Constant
  25. Frame rate                               : 25.000 FPS
  26. Color space                              : YUV
  27. Chroma subsampling                       : 4:2:0
  28. Bit depth                                : 8 bits
  29. Bits/(Pixel*Frame)                       : 0.113
  30. Stream size                              : 7.99 GiB (99%)
  31. Language                                 : Chinese
  32. Default                                  : Yes
  33. Forced                                   : No
  34. Audio
  35. ID                                       : 2
  36. Format                                   : AAC LC
  37. Format/Info                              : Advanced Audio Codec Low Complexity
  38. Codec ID                                 : A_AAC-2
  39. Duration                                 : 1 h 19 min
  40. Bit rate                                 : 192 kb/s
  41. Channel(s)                               : 2 channels
  42. Channel layout                           : L R
  43. Sampling rate                            : 44.1 kHz
  44. Frame rate                               : 43.066 FPS (1024 SPF)
  45. Compression mode                         : Lossy
  46. Stream size                              : 108 MiB (1%)
  47. Language                                 : Chinese
  48. Default                                  : Yes
  49. Forced                                   : No
复制代码

















保举请利用qBittorrent,utorrent,transmission等标准BT软件下载!以获得最快速度。奉求保种!





回复

使用道具 举报

蓝光币
99
发表于 2022-8-1 20:21:50 | 显示全部楼层
楼主发贴辛苦了,谢谢楼主分享!我觉得蓝光电影网是注册对了!
回复 支持 反对

使用道具 举报

懒得打字嘛,点击右侧快捷回复 【右侧内容,后台自定义】
您需要登录后才可以回帖 登录 | 立即加入

本版积分规则

Archiver|小黑屋| 蓝光电影网 |网站地图

Copyright © 2021 Comsenz Inc. Powered by 蓝光电影网

蓝光电影网

本站内容由用户自主分享和转载自互联网,转载目的在于传递更多信息,并不代表本网赞同其观点和对其真实性负责。

如有侵权、违反国家法律政策行为,请联系我们,我们会第一时间及时清除和处理!

举报反馈邮箱:[email protected]

快速回复 返回顶部 返回列表