找回密码

蓝光电影网

查看: 7|回复: 0

[剧情] 男人[简繁英特效字幕].Men.2022.V1.WEB-DL.1080p.H264.DDP5.1-BBQDDQ 5.61GB

[复制链接]
蓝光币
7
发表于 2022-7-31 01:57:36 | 显示全部楼层 |阅读模式


◎标  题 汉子
◎译  名 们(台) / 人类 / 人们 / 汉子们 / 人隐士海
◎片  名 Men
◎年  代 2022
◎产  地 英国
◎类  别 剧情 / 科幻 / 可骇
◎语  言 英语
◎上映日期 2022-05-20(美国)
◎IMDb评分 6.3/10 (6372人评价)
◎IMDb链接 https://www.imdb.com/title/tt13841850/
◎豆瓣评分 6.6/10 (398人评价)
◎豆瓣链接 https://movie.douban.com/subject/35341588/
◎片  长 100分钟
◎导  演 亚历克斯·加兰 Alex Garland
◎编  剧 亚历克斯·加兰 Alex Garland
◎演  员 杰西·巴克利 Jessie Buckley
       罗里·金尼尔 Rory Kinnear
       帕帕·厄希度 Paapa Essiedu
       盖尔·兰金 Gayle Rankin
       莎拉·托米 Sarah Twomey
       扎克·罗瑟拉-奥克斯利 Zak Rothera-Oxley
       水野索诺娅 Sonoya Mizuno
◎简  介
  丈夫过世以后,哈珀(杰西巴克利 饰)来到一处美丽的英国村落疗伤,但是,这里的树林中似乎有某人或某物在跟踪她,这些潜藏在她心中隐约的恐惧,随着时候逐步转酿成具体的噩梦……
  1. ##### MediaInfo ######
  2. General
  3. Unique ID                                : 60183006687828530810129517941751910580 (0x2D46D35227A8F71F566DDF631BD190B4)
  4. Complete name                            : 汉子.Men.2022.V1.WEB-DL.1080p.H264.DDP5.1-BBQDDQ.mkv
  5. Format                                   : Matroska
  6. Format version                           : Version 4
  7. File size                                : 5.61 GiB
  8. Duration                                 : 1 h 40 min
  9. Overall bit rate                         : 8 022 kb/s
  10. Movie name                               : EVO
  11. Encoded date                             : UTC 2022-07-28 07:38:55
  12. Writing application                      : mkvmerge v69.0.0 ('Day And Age') 64-bit
  13. Writing library                          : libebml v1.4.2 + libmatroska v1.6.4
  14. Video
  15. ID                                       : 1
  16. Format                                   : AVC
  17. Format/Info                              : Advanced Video Codec
  18. Format profile                           : [email protected]
  19. Format settings                          : CABAC / 4 Ref Frames
  20. Format settings, CABAC                   : Yes
  21. Format settings, Reference frames        : 4 frames
  22. Codec ID                                 : V_MPEG4/ISO/AVC
  23. Duration                                 : 1 h 40 min
  24. Bit rate                                 : 7 500 kb/s
  25. Width                                    : 1 920 pixels
  26. Height                                   : 1 080 pixels
  27. Display aspect ratio                     : 16:9
  28. Frame rate mode                          : Constant
  29. Frame rate                               : 23.976 (24000/1001/53875) FPS
  30. Color space                              : YUV
  31. Chroma subsampling                       : 4:2:0
  32. Bit depth                                : 8 bits
  33. Scan type                                : Progressive
  34. Bits/(Pixel*Frame)                       : 0.151
  35. Stream size                              : 5.24 GiB (93%)
  36. Writing library                          : x264 core 157 r2932 303c484
  37. Encoding settings                        : cabac=1 / ref=4 / deblock=1:0:0 / analyse=0x3:0x113 / me=hex / subme=8 / psy=1 / psy_rd=1.00:0.00 / mixed_ref=1 / me_range=16 / chroma_me=1 / trellis=2 / 8x8dct=1 / cqm=0 / deadzone=21,11 / fast_pskip=1 / chroma_qp_offset=-2 / threads=34 / lookahead_threads=5 / sliced_threads=0 / nr=0 / decimate=1 / interlaced=0 / NTM4NzU= / bluray_compat=0 / constrained_intra=0 / bframes=3 / b_pyramid=2 / b_adapt=1 / b_bias=0 / direct=3 / weightb=1 / open_gop=0 / weightp=2 / keyint=72 / keyint_min=37 / scenecut=0 / intra_refresh=0 / rc_lookahead=60 / rc=2pass / mbtree=1 / bitrate=7500 / ratetol=1.0 / qcomp=0.60 / qpmin=0 / qpmax=69 / qpstep=4 / cplxblur=20.0 / qblur=0.5 / vbv_maxrate=11250 / vbv_bufsize=37500 / nal_hrd=none / filler=0 / NTM4NzU=LmsMAP37EqsCpk / ip_ratio=1.40 / aq=1:1.00
  38. Default                                  : Yes
  39. Forced                                   : No
  40. Color range                              : Limited
  41. Color primaries                          : BT.709
  42. Transfer characteristics                 : BT.709
  43. Matrix coefficients                      : BT.709
  44. Audio
  45. ID                                       : 2
  46. Format                                   : E-AC-3
  47. Format/Info                              : Enhanced AC-3
  48. Commercial name                          : Dolby Digital Plus
  49. Codec ID                                 : A_EAC3
  50. Duration                                 : 1 h 40 min
  51. Bit rate mode                            : Constant
  52. Bit rate                                 : 384 kb/s
  53. Channel(s)                               : 6 channels
  54. Channel layout                           : L R C LFE Ls Rs
  55. Sampling rate                            : 48.0 kHz
  56. Frame rate                               : 31.250 FPS (1536 SPF)
  57. Compression mode                         : Lossy
  58. Stream size                              : 275 MiB (5%)
  59. Language                                 : English
  60. Service kind                             : Complete Main
  61. Default                                  : Yes
  62. Forced                                   : No
  63. Text #1
  64. ID                                       : 3
  65. Format                                   : PGS
  66. Muxing mode                              : zlib
  67. Codec ID                                 : S_HDMV/PGS
  68. Codec ID/Info                            : Picture based subtitle format used on BDs/HD-DVDs
  69. Duration                                 : 1 h 37 min
  70. Bit rate                                 : 76.2 kb/s
  71. Count of elements                        : 5060
  72. Stream size                              : 53.4 MiB (1%)
  73. Title                                    : 简英殊效[email protected]
  74. Language                                 : Chinese
  75. Default                                  : Yes
  76. Forced                                   : Yes
  77. Text #2
  78. ID                                       : 4
  79. Format                                   : PGS
  80. Muxing mode                              : zlib
  81. Codec ID                                 : S_HDMV/PGS
  82. Codec ID/Info                            : Picture based subtitle format used on BDs/HD-DVDs
  83. Duration                                 : 1 h 37 min
  84. Bit rate                                 : 76.3 kb/s
  85. Count of elements                        : 5060
  86. Stream size                              : 53.5 MiB (1%)
  87. Title                                    : 繁英殊效[email protected]宽带测试,用毕立删
  88. Language                                 : Chinese
  89. Default                                  : No
  90. Forced                                   : No
  91. Text #3
  92. ID                                       : 5
  93. Format                                   : PGS
  94. Muxing mode                              : zlib
  95. Codec ID                                 : S_HDMV/PGS
  96. Codec ID/Info                            : Picture based subtitle format used on BDs/HD-DVDs
  97. Duration                                 : 1 h 37 min
  98. Bit rate                                 : 67.1 kb/s
  99. Count of elements                        : 5057
  100. Stream size                              : 47.0 MiB (1%)
  101. Title                                    : 简中殊效[email protected]严禁贸易,结果自负
  102. Language                                 : Chinese
  103. Default                                  : No
  104. Forced                                   : No
  105. Text #4
  106. ID                                       : 6
  107. Format                                   : PGS
  108. Muxing mode                              : zlib
  109. Codec ID                                 : S_HDMV/PGS
  110. Codec ID/Info                            : Picture based subtitle format used on BDs/HD-DVDs
  111. Duration                                 : 1 h 37 min
  112. Bit rate                                 : 67.3 kb/s
  113. Count of elements                        : 5057
  114. Stream size                              : 47.1 MiB (1%)
  115. Title                                    : 繁中殊效[email protected]违规转载,告发有奖
  116. Language                                 : Chinese
  117. Default                                  : No
  118. Forced                                   : No
复制代码













保举请利用qBittorrent,utorrent,transmission等标准BT软件下载!以获得最快速度。奉求保种!





回复

使用道具 举报

懒得打字嘛,点击右侧快捷回复 【右侧内容,后台自定义】
您需要登录后才可以回帖 登录 | 立即加入

本版积分规则

Archiver|小黑屋| 蓝光电影网 |网站地图

Copyright © 2021 Comsenz Inc. Powered by 蓝光电影网

蓝光电影网

本站内容由用户自主分享和转载自互联网,转载目的在于传递更多信息,并不代表本网赞同其观点和对其真实性负责。

如有侵权、违反国家法律政策行为,请联系我们,我们会第一时间及时清除和处理!

举报反馈邮箱:[email protected]

快速回复 返回顶部 返回列表