找回密码

蓝光电影网

查看: 8|回复: 0

[剧情] 黑色电话[简繁英双语特效字幕].The.Black.Phone.2021.V1.WEB-DL.1080p.H264.Atmos.DDP5.1-BBQDDQ 6.36GB

[复制链接]
蓝光币
7
发表于 2022-7-31 01:57:36 | 显示全部楼层 |阅读模式


◎标  题 黑色电话
◎译  名 黑手机 / 黑暗电话 / 接驳灵声(港) / 暗黑电话(台)
◎片  名 The Black Phone
◎年  代 2021
◎产  地 美国
◎类  别 可骇
◎语  言 英语
◎上映日期 2021-09-25(美国奇异电影节) / 2022-06-24(美国)
◎IMDb评分 7.4/10 (1358人评价)
◎IMDb链接 https://www.imdb.com/title/tt7144666/
◎豆瓣链接 https://movie.douban.com/subject/35238569/
◎片  长 102分钟
◎导  演 斯科特·德瑞克森 Scott Derrickson
◎编  剧 斯科特·德瑞克森 Scott Derrickson
       C·罗伯特·嘉吉 C. Robert Cargill
       乔·希尔 Joe Hill
◎演  员 伊桑·霍克 Ethan Hawke
       梅森·泰晤士 Mason Thames
       玛德琳·麦格劳 Madeleine McGraw
       杰瑞米·戴维斯 Jeremy Davies
       詹姆斯·兰索恩 James Ransone
        Kellan Rhude
       E·罗杰·米切尔 E. Roger Mitchell
       迈克尔·班克斯 Michael Banks Repeta
       Megan Petersen Megan Petersen
       艾米·安德鲁斯 Amy Andrews
◎简  介
  斯科特·德瑞克森([ 奇异博士 ])将再次与布伦屋合作,拍摄可骇新片[黑暗电话](Black Phone,暂译),本片按照乔·希尔同名短篇小说改编,报告一个被绑架的孩子在软禁他的地下室中发现了一部古玩电话,虽然电话线已经断了,可是到了早晨,他总能接到来自异界的电话。小演员梅森·泰晤士(《为全人类》)和玛德琳·麦格劳([蚁人2])主演,举世负责影片刊行。
  1. ##### MediaInfo ######
  2. General
  3. Unique ID                                : 229697038903576482730811549364300230827 (0xACCE0A6093B505F88BF844816D3730AB)
  4. Complete name                            : 黑色电话.The.Black.Phone.2021.V1.WEB-DL.1080p.H264.Atmos.DDP5.1-BBQDDQ.mkv
  5. Format                                   : Matroska
  6. Format version                           : Version 4
  7. File size                                : 6.35 GiB
  8. Duration                                 : 1 h 43 min
  9. Overall bit rate                         : 8 798 kb/s
  10. Movie name                               : The.Black.Phone.2021.CMRG
  11. Encoded date                             : UTC 2022-07-17 02:05:16
  12. Writing application                      : mkvmerge v64.0.0 ('Willows') 64-bit
  13. Writing library                          : libebml v1.4.2 + libmatroska v1.6.4
  14. Attachments                              : chapters.xml
  15. Video
  16. ID                                       : 1
  17. Format                                   : AVC
  18. Format/Info                              : Advanced Video Codec
  19. Format profile                           : [email protected]
  20. Format settings                          : CABAC / 4 Ref Frames
  21. Format settings, CABAC                   : Yes
  22. Format settings, Reference frames        : 4 frames
  23. Codec ID                                 : V_MPEG4/ISO/AVC
  24. Duration                                 : 1 h 43 min
  25. Bit rate                                 : 8 000 kb/s
  26. Width                                    : 1 920 pixels
  27. Height                                   : 1 080 pixels
  28. Display aspect ratio                     : 16:9
  29. Frame rate mode                          : Constant
  30. Frame rate                               : 23.976 (24000/1001/53875) FPS
  31. Color space                              : YUV
  32. Chroma subsampling                       : 4:2:0
  33. Bit depth                                : 8 bits
  34. Scan type                                : Progressive
  35. Bits/(Pixel*Frame)                       : 0.161
  36. Stream size                              : 5.64 GiB (89%)
  37. Writing library                          : x264 core 164 r3094 bfc87b7
  38. Encoding settings                        : cabac=1 / ref=4 / deblock=1:-1:-1 / analyse=0x3:0x133 / me=umh / subme=9 / psy=1 / psy_rd=1.00:0.15 / mixed_ref=1 / me_range=16 / chroma_me=1 / trellis=2 / 8x8dct=1 / cqm=0 / deadzone=21,11 / fast_pskip=1 / chroma_qp_offset=-3 / threads=12 / lookahead_threads=1 / sliced_threads=0 / nr=0 / decimate=1 / interlaced=0 / NTM4NzU= / bluray_compat=0 / stitchable=1 / constrained_intra=0 / bframes=3 / b_pyramid=2 / b_adapt=2 / b_bias=0 / direct=3 / weightb=1 / open_gop=0 / weightp=2 / keyint=48 / keyint_min=4 / scenecut=0 / intra_refresh=0 / rc_lookahead=48 / rc=abr / mbtree=1 / bitrate=8000 / ratetol=1.0 / qcomp=0.60 / qpmin=0 / qpmax=69 / qpstep=4 / vbv_maxrate=8800 / vbv_bufsize=16000 / nal_hrd=none / filler=0 / NTM4NzU=LmsMAP37EqsCpk / ip_ratio=1.40 / aq=1:1.00
  39. Language                                 : English
  40. Default                                  : Yes
  41. Forced                                   : No
  42. Color range                              : Limited
  43. Color primaries                          : BT.709
  44. Transfer characteristics                 : BT.709
  45. Matrix coefficients                      : BT.709
  46. Audio
  47. ID                                       : 2
  48. Format                                   : E-AC-3 JOC
  49. Format/Info                              : Enhanced AC-3 with Joint Object Coding
  50. Commercial name                          : Dolby Digital Plus with Dolby Atmos
  51. Codec ID                                 : A_EAC3
  52. Duration                                 : 1 h 43 min
  53. Bit rate mode                            : Constant
  54. Bit rate                                 : 768 kb/s
  55. Channel(s)                               : 6 channels
  56. Channel layout                           : L R C LFE Ls Rs
  57. Sampling rate                            : 48.0 kHz
  58. Frame rate                               : 31.250 FPS (1536 SPF)
  59. Compression mode                         : Lossy
  60. Stream size                              : 568 MiB (9%)
  61. Language                                 : English
  62. Service kind                             : Complete Main
  63. Default                                  : Yes
  64. Forced                                   : No
  65. Complexity index                         : 16
  66. Number of dynamic objects                : 15
  67. Bed channel count                        : 1 channel
  68. Bed channel configuration                : LFE
  69. Text #1
  70. ID                                       : 3
  71. Format                                   : PGS
  72. Muxing mode                              : zlib
  73. Codec ID                                 : S_HDMV/PGS
  74. Codec ID/Info                            : Picture based subtitle format used on BDs/HD-DVDs
  75. Duration                                 : 1 h 43 min
  76. Bit rate                                 : 100 kb/s
  77. Count of elements                        : 6618
  78. Stream size                              : 73.8 MiB (1%)
  79. Title                                    : 中英殊效[email protected]
  80. Language                                 : Chinese
  81. Default                                  : Yes
  82. Forced                                   : Yes
  83. Text #2
  84. ID                                       : 4
  85. Format                                   : PGS
  86. Muxing mode                              : zlib
  87. Codec ID                                 : S_HDMV/PGS
  88. Codec ID/Info                            : Picture based subtitle format used on BDs/HD-DVDs
  89. Duration                                 : 1 h 43 min
  90. Bit rate                                 : 100 kb/s
  91. Count of elements                        : 6618
  92. Stream size                              : 74.0 MiB (1%)
  93. Title                                    : 繁英殊效[email protected]
  94. Language                                 : Chinese
  95. Default                                  : No
  96. Forced                                   : No
  97. Text #3
  98. ID                                       : 5
  99. Format                                   : PGS
  100. Muxing mode                              : zlib
  101. Codec ID                                 : S_HDMV/PGS
  102. Codec ID/Info                            : Picture based subtitle format used on BDs/HD-DVDs
  103. Duration                                 : 1 h 43 min
  104. Bit rate                                 : 97.6 kb/s
  105. Count of elements                        : 6618
  106. Stream size                              : 71.9 MiB (1%)
  107. Title                                    : 简中殊效[email protected]
  108. Language                                 : Chinese
  109. Default                                  : No
  110. Forced                                   : No
  111. Text #4
  112. ID                                       : 6
  113. Format                                   : PGS
  114. Muxing mode                              : zlib
  115. Codec ID                                 : S_HDMV/PGS
  116. Codec ID/Info                            : Picture based subtitle format used on BDs/HD-DVDs
  117. Duration                                 : 1 h 43 min
  118. Bit rate                                 : 98.2 kb/s
  119. Count of elements                        : 6618
  120. Stream size                              : 72.3 MiB (1%)
  121. Title                                    : 繁中殊效[email protected]
  122. Language                                 : Chinese
  123. Default                                  : No
  124. Forced                                   : No
  125. Text #5
  126. ID                                       : 7
  127. Format                                   : UTF-8
  128. Codec ID                                 : S_TEXT/UTF8
  129. Codec ID/Info                            : UTF-8 Plain Text
  130. Duration                                 : 1 h 42 min
  131. Bit rate                                 : 38 b/s
  132. Count of elements                        : 1157
  133. Stream size                              : 28.9 KiB (0%)
  134. Language                                 : English
  135. Default                                  : No
  136. Forced                                   : No
  137. Text #6
  138. ID                                       : 8
  139. Format                                   : UTF-8
  140. Codec ID                                 : S_TEXT/UTF8
  141. Codec ID/Info                            : UTF-8 Plain Text
  142. Duration                                 : 1 h 43 min
  143. Bit rate                                 : 46 b/s
  144. Count of elements                        : 1439
  145. Stream size                              : 35.5 KiB (0%)
  146. Title                                    : SDH
  147. Language                                 : English
  148. Default                                  : No
  149. Forced                                   : No
复制代码

















保举请利用qBittorrent,utorrent,transmission等标准BT软件下载!以获得最快速度。奉求保种!





回复

使用道具 举报

懒得打字嘛,点击右侧快捷回复 【右侧内容,后台自定义】
您需要登录后才可以回帖 登录 | 立即加入

本版积分规则

Archiver|小黑屋| 蓝光电影网 |网站地图

Copyright © 2021 Comsenz Inc. Powered by 蓝光电影网

蓝光电影网

本站内容由用户自主分享和转载自互联网,转载目的在于传递更多信息,并不代表本网赞同其观点和对其真实性负责。

如有侵权、违反国家法律政策行为,请联系我们,我们会第一时间及时清除和处理!

举报反馈邮箱:[email protected]

快速回复 返回顶部 返回列表