找回密码

蓝光电影网

查看: 28|回复: 0

[剧情] 速度与激情7[简繁英字幕].Furious.7.2015.1080p.AMZN.WEB-DL.H264.DDP5.1-TAGWEB 11.54GB

[复制链接]
蓝光币
7
发表于 2022-7-31 01:57:54 | 显示全部楼层 |阅读模式


◎标  题 速度与豪情7
◎译  名 狂野时速7(港) / 玩命关头7(台) / Fast & Furious 7
◎片  名 Furious 7
◎年  代 2015
◎产  地 美国 / 中国大陆 / 日本
◎类  别 行动 / 犯罪
◎语  言 英语
◎上映日期 2015-04-12(中国大陆) / 2015-04-03(美国)
◎IMDb评分 7.1/10 (377487人评价)
◎IMDb链接 https://www.imdb.com/title/tt2820852/
◎豆瓣评分 8.4/10 (437496人评价)
◎豆瓣链接 https://movie.douban.com/subject/23761370/
◎片  长 137分钟
◎导  演 温子仁 James Wan
◎编  剧 克里斯·摩根 Chris Morgan
       盖瑞·斯科特·汤普森 Gary Scott Thompson
◎演  员 范·迪塞尔 Vin Diesel
       保罗·沃克 Paul Walker
       杰森·斯坦森 Jason Statham
       米歇尔·罗德里格兹 Michelle Rodriguez
       乔丹娜·布鲁斯特 Jordana Brewster
       泰瑞斯·吉布森 Tyrese Gibson
       卢达·克里斯 Ludacris
       道恩·强森 Dwayne Johnson
       卢卡斯·布莱克 Lucas Black
       库尔特·拉塞尔 Kurt Russell
       娜塔莉·伊曼纽尔 Nathalie Emmanuel
       埃尔莎·帕塔奇 Elsa Pataky
       盖尔·加朵 Gal Gadot
       约翰·布罗特顿 John Brotherton
       卢克·伊万斯 Luke Evans
       托尼·贾 Tony Jaa
       杰曼·翰苏 Djimon Hounsou
       诺尔·古格雷米 Noel Gugliemi
       阿里·法扎勒 Ali Fazal
       姜成镐 Sung Kang
       龙达·鲁西 Ronda Rousey
       伊吉·阿德利亚 Iggy Azalea
       乔恩·李·布罗迪 Jon Lee Brody
       查理·普斯 Charlie Puth
       萨拉·米博·孙 Sara Mibo Sohn
       乔赛琳·唐娜休 Jocelin Donahue
       布里特妮·阿尔格 Brittney Alger
       宝娃 Bow Wow
       卡莉·普雷斯科特 Kalia Prescott
       斯蒂芬·考特尔 Steve Coulter
       托娜塔·摩根 Toneata Morgan
       安娜·科尔韦尔 Anna Colwell
       阿莉莎·威尼斯 Alyssa Veniece
       柯迪·沃克 Cody Walker
       罗伯特·普拉尔戈 Robert Pralgo
       切尔西·佩雷拉 Chelsea Pereira
       凯瑟琳陈 Catherine Chen
       布莱恩·马霍尼 Brian Mahoney
        
       法希姆·纳吉 Faheem Najm
       若泽·阿布利尔 Jose Abril
       贾内尔·伊斯拉斯 Janell Islas
       布莱恩·泰勒 Brian Tyler
       斯蒂芬·F·温顿 Stephen F. Windon
       特里·马里奥特 Terry Marriott
       卡洛斯·华达德 Carlos Ciudad
       瑞秋·劳伦森 Rachel Laurenson
       丹尼尔·萨迪克 Daniel Sudick
       马可·伍斯特 Marco Wuest
       罗恩·安德达尔 Ron Underdahl
       雷妮·莫尼梅克 Renae Moneymaker
◎标  签 行动 / 美国 / 赛车 / 飙车 / 犯罪 / 典范 / 2015 / 冒险
◎简  介
  履历了严重刺激的伦敦大战,多米尼克·托雷托(范·迪塞尔 Vin Diesel 饰)和他的伙伴们重新回归安静的生活,可是江湖的恩恩怨怨却决不答应他们轻易抽身而去。辣手的死对头欧文·肖瘫在医院,不得转动,他的哥哥戴克·肖(杰森·斯坦森 Jason Stantham 饰)则立誓要为弟弟复仇。戴克曾是英国特种军队的王牌杀手,不但身怀特技,而且心慈手软。他干掉了远在东京的韩,还几近把探长卢克·霍布斯(道恩·强森 Dwayne Johnson 饰)送到另一个天下,甚最多米尼克那世外桃源般的家也被对方炸毁。                                    
                                复仇的芒刃已经架在脖子上,多米尼克再也没有挑选,他找到久长以来最为相信的团队,与来势汹汹的戴克展开生死对决……
  1. ##### MediaInfo ######
  2. General
  3. Unique ID                                : 316742658412064861082810423487612113022 (0xEE4A6AC3CAF63744761A8429BEE8D07E)
  4. Complete name                            : Furious.7.2015.1080p.AMZN.WEB-DL.H264.DDP5.1-TAGWEB.mkv
  5. Format                                   : Matroska
  6. Format version                           : Version 4
  7. File size                                : 11.5 GiB
  8. Duration                                 : 2 h 18 min
  9. Overall bit rate                         : 11.9 Mb/s
  10. Encoded date                             : UTC 2022-07-15 22:18:37
  11. Writing application                      : mkvmerge v67.0.0 ('Under Stars') 64-bit
  12. Writing library                          : libebml v1.4.2 + libmatroska v1.6.4
  13. Video
  14. ID                                       : 1
  15. Format                                   : AVC
  16. Format/Info                              : Advanced Video Codec
  17. Format profile                           : [email protected]
  18. Format settings                          : CABAC / 4 Ref Frames
  19. Format settings, CABAC                   : Yes
  20. Format settings, Reference frames        : 4 frames
  21. Codec ID                                 : V_MPEG4/ISO/AVC
  22. Duration                                 : 2 h 18 min
  23. Bit rate                                 : 7 440 kb/s
  24. Width                                    : 1 920 pixels
  25. Height                                   : 800 pixels
  26. Display aspect ratio                     : 2.40:1
  27. Frame rate mode                          : Constant
  28. Frame rate                               : 23.976 (24000/1001/53875) FPS
  29. Color space                              : YUV
  30. Chroma subsampling                       : 4:2:0
  31. Bit depth                                : 8 bits
  32. Scan type                                : Progressive
  33. Bits/(Pixel*Frame)                       : 0.202
  34. Stream size                              : 7.20 GiB (62%)
  35. Language                                 : English
  36. Default                                  : Yes
  37. Forced                                   : No
  38. Color range                              : Limited
  39. Color primaries                          : BT.709
  40. Transfer characteristics                 : BT.709
  41. Matrix coefficients                      : BT.709
  42. Audio #1
  43. ID                                       : 2
  44. Format                                   : E-AC-3
  45. Format/Info                              : Enhanced AC-3
  46. Commercial name                          : Dolby Digital Plus
  47. Codec ID                                 : A_EAC3
  48. Duration                                 : 2 h 18 min
  49. Bit rate mode                            : Constant
  50. Bit rate                                 : 640 kb/s
  51. Channel(s)                               : 6 channels
  52. Channel layout                           : L R C LFE Ls Rs
  53. Sampling rate                            : 48.0 kHz
  54. Frame rate                               : 31.250 FPS (1536 SPF)
  55. Compression mode                         : Lossy
  56. Stream size                              : 634 MiB (5%)
  57. Title                                    : English
  58. Language                                 : English
  59. Service kind                             : Complete Main
  60. Default                                  : Yes
  61. Forced                                   : No
  62. Audio #2
  63. ID                                       : 3
  64. Format                                   : E-AC-3
  65. Format/Info                              : Enhanced AC-3
  66. Commercial name                          : Dolby Digital Plus
  67. Codec ID                                 : A_EAC3
  68. Duration                                 : 2 h 18 min
  69. Bit rate mode                            : Constant
  70. Bit rate                                 : 640 kb/s
  71. Channel(s)                               : 6 channels
  72. Channel layout                           : L R C LFE Ls Rs
  73. Sampling rate                            : 48.0 kHz
  74. Frame rate                               : 31.250 FPS (1536 SPF)
  75. Compression mode                         : Lossy
  76. Stream size                              : 634 MiB (5%)
  77. Title                                    : espa?ol
  78. Language                                 : Spanish
  79. Service kind                             : Complete Main
  80. Default                                  : No
  81. Forced                                   : No
  82. Audio #3
  83. ID                                       : 4
  84. Format                                   : E-AC-3
  85. Format/Info                              : Enhanced AC-3
  86. Commercial name                          : Dolby Digital Plus
  87. Codec ID                                 : A_EAC3
  88. Duration                                 : 2 h 18 min
  89. Bit rate mode                            : Constant
  90. Bit rate                                 : 640 kb/s
  91. Channel(s)                               : 6 channels
  92. Channel layout                           : L R C LFE Ls Rs
  93. Sampling rate                            : 48.0 kHz
  94. Frame rate                               : 31.250 FPS (1536 SPF)
  95. Compression mode                         : Lossy
  96. Stream size                              : 634 MiB (5%)
  97. Title                                    : fran?ais
  98. Language                                 : French
  99. Service kind                             : Complete Main
  100. Default                                  : No
  101. Forced                                   : No
  102. Audio #4
  103. ID                                       : 5
  104. Format                                   : E-AC-3
  105. Format/Info                              : Enhanced AC-3
  106. Commercial name                          : Dolby Digital Plus
  107. Codec ID                                 : A_EAC3
  108. Duration                                 : 2 h 18 min
  109. Bit rate mode                            : Constant
  110. Bit rate                                 : 640 kb/s
  111. Channel(s)                               : 6 channels
  112. Channel layout                           : L R C LFE Ls Rs
  113. Sampling rate                            : 48.0 kHz
  114. Frame rate                               : 31.250 FPS (1536 SPF)
  115. Compression mode                         : Lossy
  116. Stream size                              : 634 MiB (5%)
  117. Title                                    : italiano
  118. Language                                 : Italian
  119. Service kind                             : Complete Main
  120. Default                                  : No
  121. Forced                                   : No
  122. Audio #5
  123. ID                                       : 6
  124. Format                                   : E-AC-3
  125. Format/Info                              : Enhanced AC-3
  126. Commercial name                          : Dolby Digital Plus
  127. Codec ID                                 : A_EAC3
  128. Duration                                 : 2 h 18 min
  129. Bit rate mode                            : Constant
  130. Bit rate                                 : 640 kb/s
  131. Channel(s)                               : 6 channels
  132. Channel layout                           : L R C LFE Ls Rs
  133. Sampling rate                            : 48.0 kHz
  134. Frame rate                               : 31.250 FPS (1536 SPF)
  135. Compression mode                         : Lossy
  136. Stream size                              : 634 MiB (5%)
  137. Title                                    : polski
  138. Language                                 : Polish
  139. Service kind                             : Complete Main
  140. Default                                  : No
  141. Forced                                   : No
  142. Audio #6
  143. ID                                       : 7
  144. Format                                   : E-AC-3
  145. Format/Info                              : Enhanced AC-3
  146. Commercial name                          : Dolby Digital Plus
  147. Codec ID                                 : A_EAC3
  148. Duration                                 : 2 h 18 min
  149. Bit rate mode                            : Constant
  150. Bit rate                                 : 640 kb/s
  151. Channel(s)                               : 6 channels
  152. Channel layout                           : L R C LFE Ls Rs
  153. Sampling rate                            : 48.0 kHz
  154. Frame rate                               : 31.250 FPS (1536 SPF)
  155. Compression mode                         : Lossy
  156. Stream size                              : 634 MiB (5%)
  157. Title                                    : português
  158. Language                                 : Portuguese
  159. Service kind                             : Complete Main
  160. Default                                  : No
  161. Forced                                   : No
  162. Audio #7
  163. ID                                       : 8
  164. Format                                   : E-AC-3
  165. Format/Info                              : Enhanced AC-3
  166. Commercial name                          : Dolby Digital Plus
  167. Codec ID                                 : A_EAC3
  168. Duration                                 : 2 h 18 min
  169. Bit rate mode                            : Constant
  170. Bit rate                                 : 640 kb/s
  171. Channel(s)                               : 6 channels
  172. Channel layout                           : L R C LFE Ls Rs
  173. Sampling rate                            : 48.0 kHz
  174. Frame rate                               : 31.250 FPS (1536 SPF)
  175. Compression mode                         : Lossy
  176. Stream size                              : 634 MiB (5%)
  177. Title                                    : Türk?e
  178. Language                                 : Turkish
  179. Service kind                             : Complete Main
  180. Default                                  : No
  181. Forced                                   : No
  182. Text #1
  183. ID                                       : 9
  184. Format                                   : UTF-8
  185. Codec ID                                 : S_TEXT/UTF8
  186. Codec ID/Info                            : UTF-8 Plain Text
  187. Duration                                 : 2 h 16 min
  188. Bit rate                                 : 38 b/s
  189. Count of elements                        : 1405
  190. Stream size                              : 38.3 KiB (0%)
  191. Title                                    : 中文 (简体)
  192. Language                                 : Chinese
  193. Default                                  : Yes
  194. Forced                                   : No
  195. Text #2
  196. ID                                       : 10
  197. Format                                   : UTF-8
  198. Codec ID                                 : S_TEXT/UTF8
  199. Codec ID/Info                            : UTF-8 Plain Text
  200. Duration                                 : 2 h 7 min
  201. Bit rate                                 : 34 b/s
  202. Count of elements                        : 1425
  203. Stream size                              : 32.5 KiB (0%)
  204. Title                                    : 中文 (繁體)
  205. Language                                 : Chinese
  206. Default                                  : No
  207. Forced                                   : No
  208. Text #3
  209. ID                                       : 11
  210. Format                                   : UTF-8
  211. Codec ID                                 : S_TEXT/UTF8
  212. Codec ID/Info                            : UTF-8 Plain Text
  213. Duration                                 : 2 h 17 min
  214. Bit rate                                 : 60 b/s
  215. Count of elements                        : 1955
  216. Stream size                              : 60.7 KiB (0%)
  217. Title                                    : English (United States)
  218. Language                                 : English
  219. Default                                  : No
  220. Forced                                   : No
  221. Text #4
  222. ID                                       : 12
  223. Format                                   : UTF-8
  224. Codec ID                                 : S_TEXT/UTF8
  225. Codec ID/Info                            : UTF-8 Plain Text
  226. Duration                                 : 2 h 8 min
  227. Bit rate                                 : 72 b/s
  228. Count of elements                        : 1360
  229. Stream size                              : 67.6 KiB (0%)
  230. Title                                    : ??????? (??????)
  231. Language                                 : Arabic
  232. Default                                  : No
  233. Forced                                   : No
  234. Text #5
  235. ID                                       : 13
  236. Format                                   : UTF-8
  237. Codec ID                                 : S_TEXT/UTF8
  238. Codec ID/Info                            : UTF-8 Plain Text
  239. Duration                                 : 2 h 16 min
  240. Bit rate                                 : 33 b/s
  241. Count of elements                        : 1141
  242. Stream size                              : 33.4 KiB (0%)
  243. Title                                    : ?e?tina (?esko)
  244. Language                                 : Czech
  245. Default                                  : No
  246. Forced                                   : No
  247. Text #6
  248. ID                                       : 14
  249. Format                                   : UTF-8
  250. Codec ID                                 : S_TEXT/UTF8
  251. Codec ID/Info                            : UTF-8 Plain Text
  252. Duration                                 : 2 h 8 min
  253. Bit rate                                 : 39 b/s
  254. Count of elements                        : 999
  255. Stream size                              : 37.3 KiB (0%)
  256. Title                                    : dansk (Danmark)
  257. Language                                 : Danish
  258. Default                                  : No
  259. Forced                                   : No
  260. Text #7
  261. ID                                       : 15
  262. Format                                   : UTF-8
  263. Codec ID                                 : S_TEXT/UTF8
  264. Codec ID/Info                            : UTF-8 Plain Text
  265. Duration                                 : 2 h 17 min
  266. Bit rate                                 : 101 b/s
  267. Count of elements                        : 1958
  268. Stream size                              : 102 KiB (0%)
  269. Title                                    : Ελληνικ? (Ελλ?δα)
  270. Language                                 : Greek
  271. Default                                  : No
  272. Forced                                   : No
  273. Text #8
  274. ID                                       : 16
  275. Format                                   : UTF-8
  276. Codec ID                                 : S_TEXT/UTF8
  277. Codec ID/Info                            : UTF-8 Plain Text
  278. Duration                                 : 2 h 7 min
  279. Bit rate                                 : 42 b/s
  280. Count of elements                        : 1413
  281. Stream size                              : 39.5 KiB (0%)
  282. Title                                    : espa?ol (Latinoamérica)
  283. Language                                 : Spanish
  284. Default                                  : No
  285. Forced                                   : No
  286. Text #9
  287. ID                                       : 17
  288. Format                                   : UTF-8
  289. Codec ID                                 : S_TEXT/UTF8
  290. Codec ID/Info                            : UTF-8 Plain Text
  291. Duration                                 : 2 h 8 min
  292. Bit rate                                 : 41 b/s
  293. Count of elements                        : 1404
  294. Stream size                              : 38.5 KiB (0%)
  295. Title                                    : espa?ol (Espa?a)
  296. Language                                 : Spanish
  297. Default                                  : No
  298. Forced                                   : No
  299. Text #10
  300. ID                                       : 18
  301. Format                                   : UTF-8
  302. Codec ID                                 : S_TEXT/UTF8
  303. Codec ID/Info                            : UTF-8 Plain Text
  304. Duration                                 : 2 h 17 min
  305. Bit rate                                 : 59 b/s
  306. Count of elements                        : 1955
  307. Stream size                              : 59.8 KiB (0%)
  308. Title                                    : Filipino (Pilipinas)
  309. Language                                 : fil
  310. Default                                  : No
  311. Forced                                   : No
  312. Text #11
  313. ID                                       : 19
  314. Format                                   : UTF-8
  315. Codec ID                                 : S_TEXT/UTF8
  316. Codec ID/Info                            : UTF-8 Plain Text
  317. Duration                                 : 2 h 16 min
  318. Bit rate                                 : 63 b/s
  319. Count of elements                        : 1435
  320. Stream size                              : 63.5 KiB (0%)
  321. Title                                    : ????? (?????)
  322. Language                                 : Hebrew
  323. Default                                  : No
  324. Forced                                   : No
  325. Text #12
  326. ID                                       : 20
  327. Format                                   : UTF-8
  328. Codec ID                                 : S_TEXT/UTF8
  329. Codec ID/Info                            : UTF-8 Plain Text
  330. Duration                                 : 2 h 16 min
  331. Bit rate                                 : 105 b/s
  332. Count of elements                        : 1404
  333. Stream size                              : 106 KiB (0%)
  334. Title                                    : ?????? (????)
  335. Language                                 : Hindi
  336. Default                                  : No
  337. Forced                                   : No
  338. Text #13
  339. ID                                       : 21
  340. Format                                   : UTF-8
  341. Codec ID                                 : S_TEXT/UTF8
  342. Codec ID/Info                            : UTF-8 Plain Text
  343. Duration                                 : 2 h 16 min
  344. Bit rate                                 : 39 b/s
  345. Count of elements                        : 1400
  346. Stream size                              : 39.0 KiB (0%)
  347. Title                                    : magyar (Magyarország)
  348. Language                                 : Hungarian
  349. Default                                  : No
  350. Forced                                   : No
  351. Text #14
  352. ID                                       : 22
  353. Format                                   : UTF-8
  354. Codec ID                                 : S_TEXT/UTF8
  355. Codec ID/Info                            : UTF-8 Plain Text
  356. Duration                                 : 2 h 17 min
  357. Bit rate                                 : 62 b/s
  358. Count of elements                        : 1980
  359. Stream size                              : 62.9 KiB (0%)
  360. Title                                    : bahasa Indonesia (Indonesia)
  361. Language                                 : Indonesian
  362. Default                                  : No
  363. Forced                                   : No
  364. Text #15
  365. ID                                       : 23
  366. Format                                   : UTF-8
  367. Codec ID                                 : S_TEXT/UTF8
  368. Codec ID/Info                            : UTF-8 Plain Text
  369. Duration                                 : 2 h 16 min
  370. Bit rate                                 : 37 b/s
  371. Count of elements                        : 1397
  372. Stream size                              : 37.4 KiB (0%)
  373. Title                                    : italiano (Italia)
  374. Language                                 : Italian
  375. Default                                  : No
  376. Forced                                   : No
  377. Text #16
  378. ID                                       : 24
  379. Format                                   : UTF-8
  380. Codec ID                                 : S_TEXT/UTF8
  381. Codec ID/Info                            : UTF-8 Plain Text
  382. Duration                                 : 2 h 7 min
  383. Bit rate                                 : 39 b/s
  384. Count of elements                        : 1389
  385. Stream size                              : 36.6 KiB (0%)
  386. Title                                    : ??? (????)
  387. Language                                 : Korean
  388. Default                                  : No
  389. Forced                                   : No
  390. Text #17
  391. ID                                       : 25
  392. Format                                   : UTF-8
  393. Codec ID                                 : S_TEXT/UTF8
  394. Codec ID/Info                            : UTF-8 Plain Text
  395. Duration                                 : 2 h 17 min
  396. Bit rate                                 : 60 b/s
  397. Count of elements                        : 1962
  398. Stream size                              : 60.8 KiB (0%)
  399. Title                                    : bahasa Malaysia (Malaysia)
  400. Language                                 : Malay
  401. Default                                  : No
  402. Forced                                   : No
  403. Text #18
  404. ID                                       : 26
  405. Format                                   : UTF-8
  406. Codec ID                                 : S_TEXT/UTF8
  407. Codec ID/Info                            : UTF-8 Plain Text
  408. Duration                                 : 2 h 7 min
  409. Bit rate                                 : 33 b/s
  410. Count of elements                        : 1185
  411. Stream size                              : 30.9 KiB (0%)
  412. Title                                    : norsk bokm?l (Norge)
  413. Language                                 : Norwegian Bokmal
  414. Default                                  : No
  415. Forced                                   : No
  416. Text #19
  417. ID                                       : 27
  418. Format                                   : UTF-8
  419. Codec ID                                 : S_TEXT/UTF8
  420. Codec ID/Info                            : UTF-8 Plain Text
  421. Duration                                 : 2 h 8 min
  422. Bit rate                                 : 34 b/s
  423. Count of elements                        : 1429
  424. Stream size                              : 32.5 KiB (0%)
  425. Title                                    : português (Brasil)
  426. Language                                 : Portuguese
  427. Default                                  : No
  428. Forced                                   : No
  429. Text #20
  430. ID                                       : 28
  431. Format                                   : UTF-8
  432. Codec ID                                 : S_TEXT/UTF8
  433. Codec ID/Info                            : UTF-8 Plain Text
  434. Duration                                 : 2 h 8 min
  435. Bit rate                                 : 42 b/s
  436. Count of elements                        : 1285
  437. Stream size                              : 40.3 KiB (0%)
  438. Title                                    : português (Portugal)
  439. Language                                 : Portuguese
  440. Default                                  : No
  441. Forced                                   : No
  442. Text #21
  443. ID                                       : 29
  444. Format                                   : UTF-8
  445. Codec ID                                 : S_TEXT/UTF8
  446. Codec ID/Info                            : UTF-8 Plain Text
  447. Duration                                 : 2 h 17 min
  448. Bit rate                                 : 59 b/s
  449. Count of elements                        : 1954
  450. Stream size                              : 60.2 KiB (0%)
  451. Title                                    : roman? (Romania)
  452. Language                                 : Romanian
  453. Default                                  : No
  454. Forced                                   : No
  455. Text #22
  456. ID                                       : 30
  457. Format                                   : UTF-8
  458. Codec ID                                 : S_TEXT/UTF8
  459. Codec ID/Info                            : UTF-8 Plain Text
  460. Duration                                 : 2 h 8 min
  461. Bit rate                                 : 41 b/s
  462. Count of elements                        : 1082
  463. Stream size                              : 38.8 KiB (0%)
  464. Title                                    : svenska (Sverige)
  465. Language                                 : Swedish
  466. Default                                  : No
  467. Forced                                   : No
  468. Text #23
  469. ID                                       : 31
  470. Format                                   : UTF-8
  471. Codec ID                                 : S_TEXT/UTF8
  472. Codec ID/Info                            : UTF-8 Plain Text
  473. Duration                                 : 2 h 17 min
  474. Bit rate                                 : 153 b/s
  475. Count of elements                        : 2002
  476. Stream size                              : 154 KiB (0%)
  477. Title                                    : ????? (???????)
  478. Language                                 : Tamil
  479. Default                                  : No
  480. Forced                                   : No
  481. Text #24
  482. ID                                       : 32
  483. Format                                   : UTF-8
  484. Codec ID                                 : S_TEXT/UTF8
  485. Codec ID/Info                            : UTF-8 Plain Text
  486. Duration                                 : 2 h 17 min
  487. Bit rate                                 : 153 b/s
  488. Count of elements                        : 2002
  489. Stream size                              : 154 KiB (0%)
  490. Title                                    : ????? (???????)
  491. Language                                 : Tamil
  492. Default                                  : No
  493. Forced                                   : No
  494. Text #25
  495. ID                                       : 33
  496. Format                                   : UTF-8
  497. Codec ID                                 : S_TEXT/UTF8
  498. Codec ID/Info                            : UTF-8 Plain Text
  499. Duration                                 : 2 h 17 min
  500. Bit rate                                 : 167 b/s
  501. Count of elements                        : 2002
  502. Stream size                              : 168 KiB (0%)
  503. Title                                    : ?????? (????????)
  504. Language                                 : Telugu
  505. Default                                  : No
  506. Forced                                   : No
  507. Text #26
  508. ID                                       : 34
  509. Format                                   : UTF-8
  510. Codec ID                                 : S_TEXT/UTF8
  511. Codec ID/Info                            : UTF-8 Plain Text
  512. Duration                                 : 2 h 17 min
  513. Bit rate                                 : 167 b/s
  514. Count of elements                        : 2002
  515. Stream size                              : 168 KiB (0%)
  516. Title                                    : ?????? (????????)
  517. Language                                 : Telugu
  518. Default                                  : No
  519. Forced                                   : No
  520. Text #27
  521. ID                                       : 35
  522. Format                                   : UTF-8
  523. Codec ID                                 : S_TEXT/UTF8
  524. Codec ID/Info                            : UTF-8 Plain Text
  525. Duration                                 : 2 h 17 min
  526. Bit rate                                 : 136 b/s
  527. Count of elements                        : 1957
  528. Stream size                              : 137 KiB (0%)
  529. Title                                    : ??? (???)
  530. Language                                 : Thai
  531. Default                                  : No
  532. Forced                                   : No
  533. Text #28
  534. ID                                       : 36
  535. Format                                   : UTF-8
  536. Codec ID                                 : S_TEXT/UTF8
  537. Codec ID/Info                            : UTF-8 Plain Text
  538. Duration                                 : 2 h 16 min
  539. Bit rate                                 : 52 b/s
  540. Count of elements                        : 1410
  541. Stream size                              : 52.9 KiB (0%)
  542. Title                                    : Ti?ng Vi?t (Vi?t Nam)
  543. Language                                 : Vietnamese
  544. Default                                  : No
  545. Forced                                   : No
  546. Menu
  547. 00:00:00.000                             : en:Studio-Logos
  548. 00:00:52.000                             : en:Scene 2
  549. 00:02:35.000                             : en:Scene 3
  550. 00:04:00.000                             : en:Scene 4
  551. 00:07:07.000                             : en:Scene 5
  552. 00:07:57.000                             : en:Scene 6
  553. 00:09:59.000                             : en:Scene 7
  554. 00:15:08.000                             : en:Scene 8
  555. 00:18:13.000                             : en:Scene 9
  556. 00:21:40.000                             : en:Scene 10
  557. 00:24:23.000                             : en:Scene 11
  558. 00:26:01.000                             : en:Scene 12
  559. 00:27:21.000                             : en:Scene 13
  560. 00:31:57.000                             : en:Scene 14
  561. 00:35:39.000                             : en:Scene 15
  562. 00:39:55.000                             : en:Scene 16
  563. 00:44:51.000                             : en:Scene 17
  564. 01:00:42.000                             : en:Scene 18
  565. 01:03:15.000                             : en:Scene 19
  566. 01:04:27.000                             : en:Scene 20
  567. 01:07:53.000                             : en:Scene 21
  568. 01:20:35.000                             : en:Scene 22
  569. 01:23:58.000                             : en:Scene 23
  570. 01:28:48.000                             : en:Scene 24
  571. 01:30:47.000                             : en:Scene 25
  572. 01:32:27.000                             : en:Scene 26
  573. 01:34:27.000                             : en:Scene 27
  574. 01:35:54.000                             : en:Scene 28
  575. 01:43:06.000                             : en:Scene 29
  576. 01:53:03.000                             : en:Scene 30
  577. 02:02:32.000                             : en:Scene 31
  578. 02:03:45.000                             : en:Scene 32
  579. 02:08:56.000                             : en:End Credits
复制代码

















保举请利用qBittorrent,utorrent,transmission等标准BT软件下载!以获得最快速度。奉求保种!





回复

使用道具 举报

懒得打字嘛,点击右侧快捷回复 【右侧内容,后台自定义】
您需要登录后才可以回帖 登录 | 立即加入

本版积分规则

Archiver|小黑屋| 蓝光电影网 |网站地图

Copyright © 2021 Comsenz Inc. Powered by 蓝光电影网

蓝光电影网

本站内容由用户自主分享和转载自互联网,转载目的在于传递更多信息,并不代表本网赞同其观点和对其真实性负责。

如有侵权、违反国家法律政策行为,请联系我们,我们会第一时间及时清除和处理!

举报反馈邮箱:[email protected]

快速回复 返回顶部 返回列表