找回密码

蓝光电影网

查看: 18|回复: 0

[剧情] 迫降航班[简繁英字幕].Flight.2012.1080p.AMZN.WEB-DL.H264.DDP5.1-TAGWEB 7.58GB

[复制链接]
蓝光币
7
发表于 2022-7-31 01:57:55 | 显示全部楼层 |阅读模式


◎标  题 迫降航班
◎译  名 机密真相(港 / 台) / 航班
◎片  名 Flight
◎年  代 2012
◎产  地 美国
◎类  别 剧情 / 灾难
◎语  言 英语
◎上映日期 2012-11-02(美国)
◎IMDb评分 7.3/10 (340213人评价)
◎IMDb链接 https://www.imdb.com/title/tt1907668/
◎豆瓣评分 7.4/10 (40182人评价)
◎豆瓣链接 https://movie.douban.com/subject/6390832/
◎片  长 138分钟
◎导  演 罗伯特·泽米吉斯 Robert Zemeckis
◎编  剧 约翰·盖汀斯 John Gatins
◎演  员 丹泽尔·华盛顿 Denzel Washington
       詹姆斯·戴尔 James Badge Dale
       约翰·古德曼 John Goodman
       唐·钱德尔 Don Cheadle
       凯利·蕾莉 Kelly Reilly
       布鲁斯·格林伍德 Bruce Greenwood
       皮尔斯·摩根 Piers Morgan
       贝瑟妮·安妮·林德 Bethany Anne Lind
       梅丽莎·里奥 Melissa Leo
       拉维·卡波尔 Ravi Kapoor
       布莱恩·格拉格提 Brian Geraghty
       塔马拉·图尼 Tamara Tunie
       娜丁·维拉兹盖兹 Nadine Velazquez
◎标  签 美国 / 剧情 / 人性 / 灾难 / 心里斗争 / 2012 / 人生 / 丹泽尔.华盛顿
◎简  介
    机长维普·惠特克(丹泽尔·华盛顿 Denzel Washington饰)驾驶227航班驶离奥兰多。可穿越云层时,飞机却发生了始料未及的故障。告急中,经历老道的维普迫降到一个小教堂门口的空地上。维普奇迹般地控制住了飞机,让一切人都平安地回到了空中。变乱后维普成了国家豪杰。可尔后美国联邦航空局对飞翔变乱展开了观察,发现此次变乱背后的真相,居然跟维普滥用药物以及酗酒有关。是豪杰还是阶下囚,维普到底能否保护住自己的豪杰形象?                                                                      本片荣获第85届奥斯卡金像奖最好男配角和最好原创剧本提名,以及第70届金球奖电影类-剧情类最好男配角提名。《迫降航班》的本钱仅为3100万美圆,这是导演罗伯特·泽米吉斯自1978年的童贞作《一亲芗泽》后本钱最低的一部电影。
  1. ##### MediaInfo ######
  2. General
  3. Unique ID                                : 120612514028247594351500802191309005930 (0x5ABD200FF4F67D135BCE8E0DD411E46A)
  4. Complete name                            : Flight.2012.1080p.AMZN.WEB-DL.H264.DDP5.1-TAGWEB.mkv
  5. Format                                   : Matroska
  6. Format version                           : Version 4
  7. File size                                : 7.58 GiB
  8. Duration                                 : 2 h 19 min
  9. Overall bit rate                         : 7 799 kb/s
  10. Encoded date                             : UTC 2022-07-16 00:26:00
  11. Writing application                      : mkvmerge v67.0.0 ('Under Stars') 64-bit
  12. Writing library                          : libebml v1.4.2 + libmatroska v1.6.4
  13. Video
  14. ID                                       : 1
  15. Format                                   : AVC
  16. Format/Info                              : Advanced Video Codec
  17. Format profile                           : [email protected]
  18. Format settings                          : CABAC / 4 Ref Frames
  19. Format settings, CABAC                   : Yes
  20. Format settings, Reference frames        : 4 frames
  21. Codec ID                                 : V_MPEG4/ISO/AVC
  22. Duration                                 : 2 h 19 min
  23. Bit rate                                 : 2 670 kb/s
  24. Width                                    : 1 920 pixels
  25. Height                                   : 800 pixels
  26. Display aspect ratio                     : 2.40:1
  27. Frame rate mode                          : Constant
  28. Frame rate                               : 23.976 (24000/1001/53875) FPS
  29. Color space                              : YUV
  30. Chroma subsampling                       : 4:2:0
  31. Bit depth                                : 8 bits
  32. Scan type                                : Progressive
  33. Bits/(Pixel*Frame)                       : 0.072
  34. Stream size                              : 2.60 GiB (34%)
  35. Language                                 : English
  36. Default                                  : Yes
  37. Forced                                   : No
  38. Color range                              : Limited
  39. Color primaries                          : BT.709
  40. Transfer characteristics                 : BT.709
  41. Matrix coefficients                      : BT.709
  42. Audio #1
  43. ID                                       : 2
  44. Format                                   : E-AC-3
  45. Format/Info                              : Enhanced AC-3
  46. Commercial name                          : Dolby Digital Plus
  47. Codec ID                                 : A_EAC3
  48. Duration                                 : 2 h 19 min
  49. Bit rate mode                            : Constant
  50. Bit rate                                 : 640 kb/s
  51. Channel(s)                               : 6 channels
  52. Channel layout                           : L R C LFE Ls Rs
  53. Sampling rate                            : 48.0 kHz
  54. Frame rate                               : 31.250 FPS (1536 SPF)
  55. Compression mode                         : Lossy
  56. Stream size                              : 637 MiB (8%)
  57. Title                                    : English
  58. Language                                 : English
  59. Service kind                             : Complete Main
  60. Default                                  : Yes
  61. Forced                                   : No
  62. Audio #2
  63. ID                                       : 3
  64. Format                                   : E-AC-3
  65. Format/Info                              : Enhanced AC-3
  66. Commercial name                          : Dolby Digital Plus
  67. Codec ID                                 : A_EAC3
  68. Duration                                 : 2 h 19 min
  69. Bit rate mode                            : Constant
  70. Bit rate                                 : 640 kb/s
  71. Channel(s)                               : 6 channels
  72. Channel layout                           : L R C LFE Ls Rs
  73. Sampling rate                            : 48.0 kHz
  74. Frame rate                               : 31.250 FPS (1536 SPF)
  75. Compression mode                         : Lossy
  76. Stream size                              : 637 MiB (8%)
  77. Title                                    : espa?ol
  78. Language                                 : Spanish
  79. Service kind                             : Complete Main
  80. Default                                  : No
  81. Forced                                   : No
  82. Audio #3
  83. ID                                       : 4
  84. Format                                   : E-AC-3
  85. Format/Info                              : Enhanced AC-3
  86. Commercial name                          : Dolby Digital Plus
  87. Codec ID                                 : A_EAC3
  88. Duration                                 : 2 h 19 min
  89. Bit rate mode                            : Constant
  90. Bit rate                                 : 640 kb/s
  91. Channel(s)                               : 6 channels
  92. Channel layout                           : L R C LFE Ls Rs
  93. Sampling rate                            : 48.0 kHz
  94. Frame rate                               : 31.250 FPS (1536 SPF)
  95. Compression mode                         : Lossy
  96. Stream size                              : 637 MiB (8%)
  97. Title                                    : 日本語
  98. Language                                 : Japanese
  99. Service kind                             : Complete Main
  100. Default                                  : No
  101. Forced                                   : No
  102. Audio #4
  103. ID                                       : 5
  104. Format                                   : E-AC-3
  105. Format/Info                              : Enhanced AC-3
  106. Commercial name                          : Dolby Digital Plus
  107. Codec ID                                 : A_EAC3
  108. Duration                                 : 2 h 19 min
  109. Bit rate mode                            : Constant
  110. Bit rate                                 : 640 kb/s
  111. Channel(s)                               : 6 channels
  112. Channel layout                           : L R C LFE Ls Rs
  113. Sampling rate                            : 48.0 kHz
  114. Frame rate                               : 31.250 FPS (1536 SPF)
  115. Compression mode                         : Lossy
  116. Stream size                              : 637 MiB (8%)
  117. Title                                    : fran?ais
  118. Language                                 : French
  119. Service kind                             : Complete Main
  120. Default                                  : No
  121. Forced                                   : No
  122. Audio #5
  123. ID                                       : 6
  124. Format                                   : E-AC-3
  125. Format/Info                              : Enhanced AC-3
  126. Commercial name                          : Dolby Digital Plus
  127. Codec ID                                 : A_EAC3
  128. Duration                                 : 2 h 19 min
  129. Bit rate mode                            : Constant
  130. Bit rate                                 : 640 kb/s
  131. Channel(s)                               : 6 channels
  132. Channel layout                           : L R C LFE Ls Rs
  133. Sampling rate                            : 48.0 kHz
  134. Frame rate                               : 31.250 FPS (1536 SPF)
  135. Compression mode                         : Lossy
  136. Stream size                              : 637 MiB (8%)
  137. Title                                    : italiano
  138. Language                                 : Italian
  139. Service kind                             : Complete Main
  140. Default                                  : No
  141. Forced                                   : No
  142. Audio #6
  143. ID                                       : 7
  144. Format                                   : E-AC-3
  145. Format/Info                              : Enhanced AC-3
  146. Commercial name                          : Dolby Digital Plus
  147. Codec ID                                 : A_EAC3
  148. Duration                                 : 2 h 19 min
  149. Bit rate mode                            : Constant
  150. Bit rate                                 : 640 kb/s
  151. Channel(s)                               : 6 channels
  152. Channel layout                           : L R C LFE Ls Rs
  153. Sampling rate                            : 48.0 kHz
  154. Frame rate                               : 31.250 FPS (1536 SPF)
  155. Compression mode                         : Lossy
  156. Stream size                              : 637 MiB (8%)
  157. Title                                    : polski
  158. Language                                 : Polish
  159. Service kind                             : Complete Main
  160. Default                                  : No
  161. Forced                                   : No
  162. Audio #7
  163. ID                                       : 8
  164. Format                                   : E-AC-3
  165. Format/Info                              : Enhanced AC-3
  166. Commercial name                          : Dolby Digital Plus
  167. Codec ID                                 : A_EAC3
  168. Duration                                 : 2 h 19 min
  169. Bit rate mode                            : Constant
  170. Bit rate                                 : 640 kb/s
  171. Channel(s)                               : 6 channels
  172. Channel layout                           : L R C LFE Ls Rs
  173. Sampling rate                            : 48.0 kHz
  174. Frame rate                               : 31.250 FPS (1536 SPF)
  175. Compression mode                         : Lossy
  176. Stream size                              : 637 MiB (8%)
  177. Title                                    : português
  178. Language                                 : Portuguese
  179. Service kind                             : Complete Main
  180. Default                                  : No
  181. Forced                                   : No
  182. Audio #8
  183. ID                                       : 9
  184. Format                                   : E-AC-3
  185. Format/Info                              : Enhanced AC-3
  186. Commercial name                          : Dolby Digital Plus
  187. Codec ID                                 : A_EAC3
  188. Duration                                 : 2 h 19 min
  189. Bit rate mode                            : Constant
  190. Bit rate                                 : 640 kb/s
  191. Channel(s)                               : 6 channels
  192. Channel layout                           : L R C LFE Ls Rs
  193. Sampling rate                            : 48.0 kHz
  194. Frame rate                               : 31.250 FPS (1536 SPF)
  195. Compression mode                         : Lossy
  196. Stream size                              : 637 MiB (8%)
  197. Title                                    : Türk?e
  198. Language                                 : Turkish
  199. Service kind                             : Complete Main
  200. Default                                  : No
  201. Forced                                   : No
  202. Text #1
  203. ID                                       : 10
  204. Format                                   : UTF-8
  205. Codec ID                                 : S_TEXT/UTF8
  206. Codec ID/Info                            : UTF-8 Plain Text
  207. Duration                                 : 2 h 10 min
  208. Bit rate                                 : 63 b/s
  209. Count of elements                        : 2089
  210. Stream size                              : 60.9 KiB (0%)
  211. Title                                    : 中文 (简体)
  212. Language                                 : Chinese
  213. Default                                  : Yes
  214. Forced                                   : No
  215. Text #2
  216. ID                                       : 11
  217. Format                                   : UTF-8
  218. Codec ID                                 : S_TEXT/UTF8
  219. Codec ID/Info                            : UTF-8 Plain Text
  220. Duration                                 : 2 h 11 min
  221. Bit rate                                 : 52 b/s
  222. Count of elements                        : 1847
  223. Stream size                              : 50.6 KiB (0%)
  224. Title                                    : 中文 (繁體)
  225. Language                                 : Chinese
  226. Default                                  : No
  227. Forced                                   : No
  228. Text #3
  229. ID                                       : 12
  230. Format                                   : UTF-8
  231. Codec ID                                 : S_TEXT/UTF8
  232. Codec ID/Info                            : UTF-8 Plain Text
  233. Duration                                 : 2 h 11 min
  234. Bit rate                                 : 75 b/s
  235. Count of elements                        : 2400
  236. Stream size                              : 72.7 KiB (0%)
  237. Title                                    : English (United States)
  238. Language                                 : English
  239. Default                                  : No
  240. Forced                                   : No
  241. Text #4
  242. ID                                       : 13
  243. Format                                   : UTF-8
  244. Codec ID                                 : S_TEXT/UTF8
  245. Codec ID/Info                            : UTF-8 Plain Text
  246. Duration                                 : 2 h 10 min
  247. Bit rate                                 : 70 b/s
  248. Count of elements                        : 2082
  249. Stream size                              : 67.2 KiB (0%)
  250. Title                                    : English (United States)
  251. Language                                 : English
  252. Default                                  : No
  253. Forced                                   : No
  254. Text #5
  255. ID                                       : 14
  256. Format                                   : UTF-8
  257. Codec ID                                 : S_TEXT/UTF8
  258. Codec ID/Info                            : UTF-8 Plain Text
  259. Duration                                 : 2 h 10 min
  260. Bit rate                                 : 89 b/s
  261. Count of elements                        : 1663
  262. Stream size                              : 86.0 KiB (0%)
  263. Title                                    : ???????
  264. Language                                 : Arabic
  265. Default                                  : No
  266. Forced                                   : No
  267. Text #6
  268. ID                                       : 15
  269. Format                                   : UTF-8
  270. Codec ID                                 : S_TEXT/UTF8
  271. Codec ID/Info                            : UTF-8 Plain Text
  272. Duration                                 : 2 h 10 min
  273. Bit rate                                 : 57 b/s
  274. Count of elements                        : 1360
  275. Stream size                              : 54.7 KiB (0%)
  276. Title                                    : dansk
  277. Language                                 : Danish
  278. Default                                  : No
  279. Forced                                   : No
  280. Text #7
  281. ID                                       : 16
  282. Format                                   : UTF-8
  283. Codec ID                                 : S_TEXT/UTF8
  284. Codec ID/Info                            : UTF-8 Plain Text
  285. Duration                                 : 2 h 10 min
  286. Bit rate                                 : 66 b/s
  287. Count of elements                        : 1936
  288. Stream size                              : 64.1 KiB (0%)
  289. Title                                    : Deutsch (Deutschland)
  290. Language                                 : German
  291. Default                                  : No
  292. Forced                                   : No
  293. Text #8
  294. ID                                       : 17
  295. Format                                   : UTF-8
  296. Codec ID                                 : S_TEXT/UTF8
  297. Codec ID/Info                            : UTF-8 Plain Text
  298. Duration                                 : 2 h 11 min
  299. Bit rate                                 : 107 b/s
  300. Count of elements                        : 1895
  301. Stream size                              : 104 KiB (0%)
  302. Title                                    : Ελληνικ? (Ελλ?δα)
  303. Language                                 : Greek
  304. Default                                  : No
  305. Forced                                   : No
  306. Text #9
  307. ID                                       : 18
  308. Format                                   : UTF-8
  309. Codec ID                                 : S_TEXT/UTF8
  310. Codec ID/Info                            : UTF-8 Plain Text
  311. Duration                                 : 2 h 13 min
  312. Bit rate                                 : 58 b/s
  313. Count of elements                        : 1629
  314. Stream size                              : 57.1 KiB (0%)
  315. Title                                    : espa?ol (Latinoamérica)
  316. Language                                 : Spanish
  317. Default                                  : No
  318. Forced                                   : No
  319. Text #10
  320. ID                                       : 19
  321. Format                                   : UTF-8
  322. Codec ID                                 : S_TEXT/UTF8
  323. Codec ID/Info                            : UTF-8 Plain Text
  324. Duration                                 : 2 h 10 min
  325. Bit rate                                 : 70 b/s
  326. Count of elements                        : 1968
  327. Stream size                              : 67.7 KiB (0%)
  328. Title                                    : espa?ol (Espa?a)
  329. Language                                 : Spanish
  330. Default                                  : No
  331. Forced                                   : No
  332. Text #11
  333. ID                                       : 20
  334. Format                                   : UTF-8
  335. Codec ID                                 : S_TEXT/UTF8
  336. Codec ID/Info                            : UTF-8 Plain Text
  337. Duration                                 : 2 h 10 min
  338. Bit rate                                 : 60 b/s
  339. Count of elements                        : 2076
  340. Stream size                              : 57.5 KiB (0%)
  341. Title                                    : suomi
  342. Language                                 : Finnish
  343. Default                                  : No
  344. Forced                                   : No
  345. Text #12
  346. ID                                       : 21
  347. Format                                   : UTF-8
  348. Codec ID                                 : S_TEXT/UTF8
  349. Codec ID/Info                            : UTF-8 Plain Text
  350. Duration                                 : 2 h 11 min
  351. Bit rate                                 : 68 b/s
  352. Count of elements                        : 2085
  353. Stream size                              : 65.6 KiB (0%)
  354. Title                                    : fran?ais (Canada)
  355. Language                                 : French
  356. Default                                  : No
  357. Forced                                   : No
  358. Text #13
  359. ID                                       : 22
  360. Format                                   : UTF-8
  361. Codec ID                                 : S_TEXT/UTF8
  362. Codec ID/Info                            : UTF-8 Plain Text
  363. Duration                                 : 2 h 10 min
  364. Bit rate                                 : 59 b/s
  365. Count of elements                        : 1758
  366. Stream size                              : 56.7 KiB (0%)
  367. Title                                    : fran?ais (France)
  368. Language                                 : French
  369. Default                                  : No
  370. Forced                                   : No
  371. Text #14
  372. ID                                       : 23
  373. Format                                   : UTF-8
  374. Codec ID                                 : S_TEXT/UTF8
  375. Codec ID/Info                            : UTF-8 Plain Text
  376. Duration                                 : 2 h 13 min
  377. Bit rate                                 : 84 b/s
  378. Count of elements                        : 1636
  379. Stream size                              : 82.7 KiB (0%)
  380. Title                                    : ?????
  381. Language                                 : Hebrew
  382. Default                                  : No
  383. Forced                                   : No
  384. Text #15
  385. ID                                       : 24
  386. Format                                   : UTF-8
  387. Codec ID                                 : S_TEXT/UTF8
  388. Codec ID/Info                            : UTF-8 Plain Text
  389. Duration                                 : 2 h 10 min
  390. Bit rate                                 : 149 b/s
  391. Count of elements                        : 2089
  392. Stream size                              : 143 KiB (0%)
  393. Title                                    : ??????
  394. Language                                 : Hindi
  395. Default                                  : No
  396. Forced                                   : No
  397. Text #16
  398. ID                                       : 25
  399. Format                                   : UTF-8
  400. Codec ID                                 : S_TEXT/UTF8
  401. Codec ID/Info                            : UTF-8 Plain Text
  402. Duration                                 : 2 h 10 min
  403. Bit rate                                 : 61 b/s
  404. Count of elements                        : 1630
  405. Stream size                              : 58.7 KiB (0%)
  406. Title                                    : bahasa Indonesia
  407. Language                                 : Indonesian
  408. Default                                  : No
  409. Forced                                   : No
  410. Text #17
  411. ID                                       : 26
  412. Format                                   : UTF-8
  413. Codec ID                                 : S_TEXT/UTF8
  414. Codec ID/Info                            : UTF-8 Plain Text
  415. Duration                                 : 2 h 10 min
  416. Bit rate                                 : 61 b/s
  417. Count of elements                        : 1575
  418. Stream size                              : 58.7 KiB (0%)
  419. Title                                    : italiano
  420. Language                                 : Italian
  421. Default                                  : No
  422. Forced                                   : No
  423. Text #18
  424. ID                                       : 27
  425. Format                                   : UTF-8
  426. Codec ID                                 : S_TEXT/UTF8
  427. Codec ID/Info                            : UTF-8 Plain Text
  428. Duration                                 : 2 h 10 min
  429. Bit rate                                 : 51 b/s
  430. Count of elements                        : 1687
  431. Stream size                              : 49.0 KiB (0%)
  432. Title                                    : 日本語
  433. Language                                 : Japanese
  434. Default                                  : No
  435. Forced                                   : No
  436. Text #19
  437. ID                                       : 28
  438. Format                                   : UTF-8
  439. Codec ID                                 : S_TEXT/UTF8
  440. Codec ID/Info                            : UTF-8 Plain Text
  441. Duration                                 : 2 h 13 min
  442. Bit rate                                 : 58 b/s
  443. Count of elements                        : 1649
  444. Stream size                              : 57.3 KiB (0%)
  445. Title                                    : ???
  446. Language                                 : Korean
  447. Default                                  : No
  448. Forced                                   : No
  449. Text #20
  450. ID                                       : 29
  451. Format                                   : UTF-8
  452. Codec ID                                 : S_TEXT/UTF8
  453. Codec ID/Info                            : UTF-8 Plain Text
  454. Duration                                 : 2 h 13 min
  455. Bit rate                                 : 64 b/s
  456. Count of elements                        : 1676
  457. Stream size                              : 63.1 KiB (0%)
  458. Title                                    : ??? (????)
  459. Language                                 : Korean
  460. Default                                  : No
  461. Forced                                   : No
  462. Text #21
  463. ID                                       : 30
  464. Format                                   : UTF-8
  465. Codec ID                                 : S_TEXT/UTF8
  466. Codec ID/Info                            : UTF-8 Plain Text
  467. Duration                                 : 2 h 10 min
  468. Bit rate                                 : 76 b/s
  469. Count of elements                        : 2085
  470. Stream size                              : 73.5 KiB (0%)
  471. Title                                    : bahasa Malaysia (Malaysia)
  472. Language                                 : Malay
  473. Default                                  : No
  474. Forced                                   : No
  475. Text #22
  476. ID                                       : 31
  477. Format                                   : UTF-8
  478. Codec ID                                 : S_TEXT/UTF8
  479. Codec ID/Info                            : UTF-8 Plain Text
  480. Duration                                 : 2 h 10 min
  481. Bit rate                                 : 51 b/s
  482. Count of elements                        : 1585
  483. Stream size                              : 49.2 KiB (0%)
  484. Title                                    : norsk bokm?l
  485. Language                                 : Norwegian Bokmal
  486. Default                                  : No
  487. Forced                                   : No
  488. Text #23
  489. ID                                       : 32
  490. Format                                   : UTF-8
  491. Codec ID                                 : S_TEXT/UTF8
  492. Codec ID/Info                            : UTF-8 Plain Text
  493. Duration                                 : 2 h 10 min
  494. Bit rate                                 : 53 b/s
  495. Count of elements                        : 1326
  496. Stream size                              : 50.7 KiB (0%)
  497. Title                                    : Nederlands
  498. Language                                 : Dutch
  499. Default                                  : No
  500. Forced                                   : No
  501. Text #24
  502. ID                                       : 33
  503. Format                                   : UTF-8
  504. Codec ID                                 : S_TEXT/UTF8
  505. Codec ID/Info                            : UTF-8 Plain Text
  506. Duration                                 : 2 h 11 min
  507. Bit rate                                 : 62 b/s
  508. Count of elements                        : 2085
  509. Stream size                              : 60.3 KiB (0%)
  510. Title                                    : polski
  511. Language                                 : Polish
  512. Default                                  : No
  513. Forced                                   : No
  514. Text #25
  515. ID                                       : 34
  516. Format                                   : UTF-8
  517. Codec ID                                 : S_TEXT/UTF8
  518. Codec ID/Info                            : UTF-8 Plain Text
  519. Duration                                 : 2 h 13 min
  520. Bit rate                                 : 54 b/s
  521. Count of elements                        : 1636
  522. Stream size                              : 53.5 KiB (0%)
  523. Title                                    : português (Brasil)
  524. Language                                 : Portuguese
  525. Default                                  : No
  526. Forced                                   : No
  527. Text #26
  528. ID                                       : 35
  529. Format                                   : UTF-8
  530. Codec ID                                 : S_TEXT/UTF8
  531. Codec ID/Info                            : UTF-8 Plain Text
  532. Duration                                 : 2 h 13 min
  533. Bit rate                                 : 60 b/s
  534. Count of elements                        : 1646
  535. Stream size                              : 59.2 KiB (0%)
  536. Title                                    : português (Portugal)
  537. Language                                 : Portuguese
  538. Default                                  : No
  539. Forced                                   : No
  540. Text #27
  541. ID                                       : 36
  542. Format                                   : UTF-8
  543. Codec ID                                 : S_TEXT/UTF8
  544. Codec ID/Info                            : UTF-8 Plain Text
  545. Duration                                 : 2 h 11 min
  546. Bit rate                                 : 61 b/s
  547. Count of elements                        : 2062
  548. Stream size                              : 59.0 KiB (0%)
  549. Title                                    : roman? (Romania)
  550. Language                                 : Romanian
  551. Default                                  : No
  552. Forced                                   : No
  553. Text #28
  554. ID                                       : 37
  555. Format                                   : UTF-8
  556. Codec ID                                 : S_TEXT/UTF8
  557. Codec ID/Info                            : UTF-8 Plain Text
  558. Duration                                 : 2 h 13 min
  559. Bit rate                                 : 91 b/s
  560. Count of elements                        : 1681
  561. Stream size                              : 88.9 KiB (0%)
  562. Title                                    : русский
  563. Language                                 : Russian
  564. Default                                  : No
  565. Forced                                   : No
  566. Text #29
  567. ID                                       : 38
  568. Format                                   : UTF-8
  569. Codec ID                                 : S_TEXT/UTF8
  570. Codec ID/Info                            : UTF-8 Plain Text
  571. Duration                                 : 2 h 10 min
  572. Bit rate                                 : 62 b/s
  573. Count of elements                        : 1614
  574. Stream size                              : 60.0 KiB (0%)
  575. Title                                    : svenska
  576. Language                                 : Swedish
  577. Default                                  : No
  578. Forced                                   : No
  579. Text #30
  580. ID                                       : 39
  581. Format                                   : UTF-8
  582. Codec ID                                 : S_TEXT/UTF8
  583. Codec ID/Info                            : UTF-8 Plain Text
  584. Duration                                 : 2 h 17 min
  585. Bit rate                                 : 179 b/s
  586. Count of elements                        : 2054
  587. Stream size                              : 181 KiB (0%)
  588. Title                                    : ?????
  589. Language                                 : Tamil
  590. Default                                  : No
  591. Forced                                   : No
  592. Text #31
  593. ID                                       : 40
  594. Format                                   : UTF-8
  595. Codec ID                                 : S_TEXT/UTF8
  596. Codec ID/Info                            : UTF-8 Plain Text
  597. Duration                                 : 2 h 17 min
  598. Bit rate                                 : 190 b/s
  599. Count of elements                        : 2054
  600. Stream size                              : 192 KiB (0%)
  601. Title                                    : ??????
  602. Language                                 : Telugu
  603. Default                                  : No
  604. Forced                                   : No
  605. Text #32
  606. ID                                       : 41
  607. Format                                   : UTF-8
  608. Codec ID                                 : S_TEXT/UTF8
  609. Codec ID/Info                            : UTF-8 Plain Text
  610. Duration                                 : 2 h 11 min
  611. Bit rate                                 : 161 b/s
  612. Count of elements                        : 1927
  613. Stream size                              : 155 KiB (0%)
  614. Title                                    : ??? (???)
  615. Language                                 : Thai
  616. Default                                  : No
  617. Forced                                   : No
  618. Text #33
  619. ID                                       : 42
  620. Format                                   : UTF-8
  621. Codec ID                                 : S_TEXT/UTF8
  622. Codec ID/Info                            : UTF-8 Plain Text
  623. Duration                                 : 2 h 13 min
  624. Bit rate                                 : 61 b/s
  625. Count of elements                        : 1651
  626. Stream size                              : 60.4 KiB (0%)
  627. Title                                    : Türk?e
  628. Language                                 : Turkish
  629. Default                                  : No
  630. Forced                                   : No
  631. Menu
  632. 00:00:00.000                             : en:Studio Logo
  633. 00:00:21.000                             : en:Whip Gets a Call from His Ex-Wife
  634. 00:03:49.000                             : en:Whip Boards the Plane
  635. 00:06:32.000                             : en:Nicole Gets Drugs from Kip
  636. 00:09:14.000                             : en:Whip Flies Through Some Rough Air
  637. 00:13:04.000                             : en:Nicole Finds Her Landlord in Her Apartment
  638. 00:14:51.000                             : en:Whip Introduces Himself
  639. 00:17:07.000                             : en:The Flight Has Problems
  640. 00:25:08.000                             : en:Whip Is Dragged Out of the Plane
  641. 00:26:17.000                             : en:Whip Wakes Up
  642. 00:34:40.000                             : en:Whip Gets a Visitor
  643. 00:38:22.000                             : en:Whip Goes for a Smoke
  644. 00:45:42.000                             : en:Whip Goes to His Father's Farm House
  645. 00:52:01.000                             : en:Whip Meets with Charlie and Hugh
  646. 00:58:00.000                             : en:Whip Drives to See Nicole
  647. 01:01:36.000                             : en:Whip and Nicole Spend Time Together
  648. 01:03:48.000                             : en:Hugh Shows Whip the Crash Site
  649. 01:06:48.000                             : en:Carr Holds a Meeting
  650. 01:10:10.000                             : en:Whip Watches an Old Family Video
  651. 01:12:44.000                             : en:Whip Tells Nicole about His Dad
  652. 01:15:30.000                             : en:Whip Attends Katerina's Funeral
  653. 01:19:30.000                             : en:Whip Picks up Nicole from Work
  654. 01:22:21.000                             : en:Whip Visits Ken
  655. 01:26:54.000                             : en:Whip and Nicole Get into a Fight
  656. 01:31:49.000                             : en:Nicole Leaves
  657. 01:33:19.000                             : en:Hugh and Charlie Tell Whip about His Case
  658. 01:37:05.000                             : en:Whip Goes to See His Ex-Wife and Son
  659. 01:40:12.000                             : en:Whip Goes to Talk to Charlie
  660. 01:41:56.000                             : en:Whip Spends the Night in a Hotel
  661. 01:48:54.000                             : en:Harling Is Summoned
  662. 01:54:15.000                             : en:The Trio Heads to the Hearing
  663. 01:55:20.000                             : en:Ellen Block Questions Whip
  664. 02:06:19.000                             : en:Whip Speaks to a Group of Inmates
  665. 02:11:54.000                             : en:End Credits
复制代码

















保举请利用qBittorrent,utorrent,transmission等标准BT软件下载!以获得最快速度。奉求保种!





回复

使用道具 举报

懒得打字嘛,点击右侧快捷回复 【右侧内容,后台自定义】
您需要登录后才可以回帖 登录 | 立即加入

本版积分规则

Archiver|小黑屋| 蓝光电影网 |网站地图

Copyright © 2021 Comsenz Inc. Powered by 蓝光电影网

蓝光电影网

本站内容由用户自主分享和转载自互联网,转载目的在于传递更多信息,并不代表本网赞同其观点和对其真实性负责。

如有侵权、违反国家法律政策行为,请联系我们,我们会第一时间及时清除和处理!

举报反馈邮箱:[email protected]

快速回复 返回顶部 返回列表