找回密码

蓝光电影网

查看: 143|回复: 0

[剧情] 从太空看地球[共4部合集][国英多音轨/简繁英双语字幕].BBC.Earth.from.Space.2019.EP01-EP04.BluRay.1080p.2Audio.DTS-HD.MA.2.0.x265.10bit-ALT 23.86GB

[复制链接]
蓝光币
8
发表于 2022-7-31 01:58:08 | 显示全部楼层 |阅读模式


◎标  题 从太空看地球
◎译  名 太空看地球
◎片  名 Earth From Space
◎年  代 2019
◎产  地 英国
◎类  别 记载片
◎语  言 英语
◎上映日期 2019-04-17(英国)
◎IMDb评分 8.2/10 (503人评价)
◎IMDb链接 https://www.imdb.com/title/tt10165710/
◎豆瓣评分 9.5/10 (3703人评价)
◎豆瓣链接 https://movie.douban.com/subject/27061461/
◎片  长 50分钟
◎导  演 巴尼·雷维尔 Barny Revill
◎演  员 切瓦特·埃加福 Chiwetel Ejiofor
◎简  介
  从太空俯瞰地球,我们的地球之美使民气旷神怡。与此同时,我们生活的时代,地球概况正在发生着史无前例的敏捷变化,我们目击着人类行为给地球带来积极/悲观的影响。我们试着换一个角度,借助架设在空中、空中、太空中的拍摄装备,用更广宽的视角报告地球上的生命故事,以及前所未见的地球故里。
  1. 合集文件列表:
  2. 1.BBC.Earth.from.Space.2019.EP01.BluRay.1080p.2Audio.DTS-HD.MA.2.0.x265.10bit-ALT.mkv 6.55GB
  3. 2.BBC.Earth.from.Space.2019.EP02.BluRay.1080p.2Audio.DTS-HD.MA.2.0.x265.10bit-ALT.mkv 6.12GB
  4. 3.BBC.Earth.from.Space.2019.EP03.BluRay.1080p.2Audio.DTS-HD.MA.2.0.x265.10bit-ALT.mkv 5.46GB
  5. 4.BBC.Earth.from.Space.2019.EP04.BluRay.1080p.2Audio.DTS-HD.MA.2.0.x265.10bit-ALT.mkv 5.73GB
复制代码
  1. ##### MediaInfo ######
  2. General
  3. Unique ID                                : 112646433334810588889654408203184728295 (0x54BEE9F5ED3A6B3F18CDF7EF24B168E7)
  4. Complete name                            : BBC.Earth.from.Space.2019.EP01.BluRay.1080p.2Audio.DTS-HD.MA.2.0.x265.10bit-ALT.mkv
  5. Format                                   : Matroska
  6. Format version                           : Version 4
  7. File size                                : 6.55 GiB
  8. Duration                                 : 57 min 46 s
  9. Overall bit rate mode                    : Variable
  10. Overall bit rate                         : 16.2 Mb/s
  11. Encoded date                             : UTC 2022-01-31 11:23:57
  12. Writing application                      : mkvmerge v49.0.0 ('Sick Of Losing Soulmates') 64-bit
  13. Writing library                          : libebml v1.4.0 + libmatroska v1.6.1
  14. Video
  15. ID                                       : 1
  16. Format                                   : HEVC
  17. Format/Info                              : High Efficiency Video Coding
  18. Format profile                           : Main [email protected]@High
  19. Codec ID                                 : V_MPEGH/ISO/HEVC
  20. Duration                                 : 57 min 46 s
  21. Bit rate                                 : 12.8 Mb/s
  22. Width                                    : 1 920 pixels
  23. Height                                   : 1 080 pixels
  24. Display aspect ratio                     : 16:9
  25. Frame rate mode                          : Constant
  26. Frame rate                               : 25.000 FPS
  27. Color space                              : YUV
  28. Chroma subsampling                       : 4:2:0
  29. Bit depth                                : 10 bits
  30. Bits/(Pixel*Frame)                       : 0.248
  31. Stream size                              : 5.18 GiB (79%)
  32. Title                                    : HEVC, [email protected]@High, 25 fps @ 12840 kbps
  33. Writing library                          : x265 3.4+14-gd419c7152:[Windows][GCC 10.2.0][64 bit] 10bit
  34. Encoding settings                        : cpuid=538751111039 / frame-threads=4 / numa-pools=20 / wpp / pmode / pme / no-psnr / no-ssim / log-level=2 / input-csp=1 / input-res=1920x1080 / interlace=0 / total-frames=86650 / level-idc=51 / high-tier=1 / uhd-bd=0 / ref=5 / no-allow-non-conformance / no-repeat-headers / annexb / no-aud / no-hrd / info / hash=0 / no-temporal-layers / open-gop / min-keyint=24 / keyint=240 / gop-lookahead=0 / bframes=6 / b-adapt=2 / b-pyramid / bframe-bias=0 / rc-lookahead=40 / lookahead-slices=0 / NTM4NzU=uuDQuD2mJt9fsCf / scenecut=40 / hist-scenecut=0 / radl=0 / no-splice / no-intra-refresh / ctu=32 / min-cu-size=8 / no-rect / no-amp / max-tu-size=32 / tu-inter-depth=3 / tu-intra-depth=3 / limit-tu=4 / rdoq-level=2 / dynamic-rd=0.00 / no-ssim-rd / signhide / no-tskip / nr-intra=0 / nr-inter=0 / no-constrained-intra / no-strong-intra-smoothing / max-merge=4 / limit-refs=1 / limit-modes / me=3 / subme=4 / merange=25 / temporal-mvp / no-frame-dup / no-hme / weightp / weightb / no-analyze-src-pics / deblock=-3:-3 / no-sao / no-sao-non-deblock / rd=6 / selective-sao=0 / no-early-skip / rskip / no-fast-intra / no-tskip-fast / no-cu-lossless / b-intra / no-splitrd-skip / rdpenalty=0 / psy-rd=2.00 / psy-rdoq=1.00 / no-rd-refine / no-lossless / cbqpoffs=0 / crqpoffs=0 / rc=crf / crf=18.5 / qcomp=0.65 / qpstep=4 / stats-write=0 / stats-read=0 / vbv-maxrate=80000 / vbv-bufsize=80000 / vbv-init=0.9 / crf-max=0.0 / crf-min=0.0 / ipratio=1.40 / pbratio=1.30 / aq-mode=2 / aq-strength=0.85 / cutree / zone-count=0 / no-strict-cbr / qg-size=32 / no-rc-grain / qpmax=69 / qpmin=0 / no-const-vbv / sar=1 / overscan=0 / videoformat=5 / range=0 / colorprim=1 / transfer=1 / colormatrix=1 / chromaloc=0 / display-window=0 / cll=0,0 / min-luma=0 / max-luma=1023 / log2-max-poc-lsb=8 / vui-timing-info / vui-hrd-info / slices=1 / no-opt-qp-pps / no-opt-ref-list-length-pps / no-multi-pass-opt-rps / scenecut-bias=0.05 / hist-threshold=0.03 / no-opt-cu-delta-qp / no-aq-motion / no-hdr10 / no-hdr10-opt / no-dhdr10-opt / no-idr-recovery-sei / analysis-reuse-level=0 / analysis-save-reuse-level=0 / analysis-load-reuse-level=0 / scale-factor=0 / refine-intra=0 / refine-inter=0 / refine-mv=1 / refine-ctu-distortion=0 / no-limit-sao / ctu-info=0 / no-lowpass-dct / refine-analysis-type=0 / copy-pic=1 / max-ausize-factor=1.0 / no-dynamic-refine / no-single-sei / no-hevc-aq / no-svt / no-field / qp-adaptation-range=1.00 / no-scenecut-aware-qpconformance-window-offsets / right=0 / bottom=0 / NTM4NzU= / decoder-max-rate=0
  35. Language                                 : English
  36. Default                                  : Yes
  37. Forced                                   : No
  38. Color range                              : Limited
  39. Color primaries                          : BT.709
  40. Transfer characteristics                 : BT.709
  41. Matrix coefficients                      : BT.709
  42. Audio #1
  43. ID                                       : 2
  44. Format                                   : DTS XLL
  45. Format/Info                              : Digital Theater Systems
  46. Commercial name                          : DTS-HD Master Audio
  47. Codec ID                                 : A_DTS
  48. Duration                                 : 57 min 45 s
  49. Bit rate mode                            : Variable
  50. Bit rate                                 : 1 706 kb/s
  51. Channel(s)                               : 2 channels
  52. Channel layout                           : L R
  53. Sampling rate                            : 48.0 kHz
  54. Frame rate                               : 93.750 FPS (512 SPF)
  55. Bit depth                                : 16 bits
  56. Compression mode                         : Lossless
  57. Stream size                              : 705 MiB (11%)
  58. Title                                    : English DTS-HD Master Audio 2.0 @ 1717 kbps
  59. Language                                 : English
  60. Default                                  : Yes
  61. Forced                                   : No
  62. Audio #2
  63. ID                                       : 3
  64. Format                                   : DTS
  65. Format/Info                              : Digital Theater Systems
  66. Codec ID                                 : A_DTS
  67. Duration                                 : 57 min 44 s
  68. Bit rate mode                            : Constant
  69. Bit rate                                 : 1 536 kb/s
  70. Channel(s)                               : 6 channels
  71. Channel layout                           : C L R Ls Rs LFE
  72. Sampling rate                            : 48.0 kHz
  73. Frame rate                               : 93.750 FPS (512 SPF)
  74. Bit depth                                : 16 bits
  75. Compression mode                         : Lossy
  76. Stream size                              : 634 MiB (9%)
  77. Title                                    : Mandarin DTS 5.1 @ 1509 kbps 腾讯国配重混
  78. Language                                 : Chinese
  79. Default                                  : No
  80. Forced                                   : No
  81. Text #1
  82. ID                                       : 4
  83. Format                                   : PGS
  84. Codec ID                                 : S_HDMV/PGS
  85. Codec ID/Info                            : Picture based subtitle format used on BDs/HD-DVDs
  86. Duration                                 : 56 min 58 s
  87. Bit rate                                 : 27.1 kb/s
  88. Count of elements                        : 912
  89. Stream size                              : 11.0 MiB (0%)
  90. Title                                    : Eng/SUP
  91. Language                                 : English
  92. Default                                  : No
  93. Forced                                   : No
  94. Text #2
  95. ID                                       : 5
  96. Format                                   : PGS
  97. Codec ID                                 : S_HDMV/PGS
  98. Codec ID/Info                            : Picture based subtitle format used on BDs/HD-DVDs
  99. Duration                                 : 56 min 58 s
  100. Bit rate                                 : 18.9 kb/s
  101. Count of elements                        : 856
  102. Stream size                              : 7.72 MiB (0%)
  103. Title                                    : Chs/SUP  简体
  104. Language                                 : Chinese
  105. Default                                  : Yes
  106. Forced                                   : No
  107. Text #3
  108. ID                                       : 6
  109. Format                                   : PGS
  110. Codec ID                                 : S_HDMV/PGS
  111. Codec ID/Info                            : Picture based subtitle format used on BDs/HD-DVDs
  112. Duration                                 : 56 min 58 s
  113. Bit rate                                 : 19.2 kb/s
  114. Count of elements                        : 856
  115. Stream size                              : 7.82 MiB (0%)
  116. Title                                    : Cht/SUP  繁体
  117. Language                                 : Chinese
  118. Default                                  : No
  119. Forced                                   : No
  120. Text #4
  121. ID                                       : 7
  122. Format                                   : PGS
  123. Codec ID                                 : S_HDMV/PGS
  124. Codec ID/Info                            : Picture based subtitle format used on BDs/HD-DVDs
  125. Duration                                 : 56 min 58 s
  126. Bit rate                                 : 30.9 kb/s
  127. Count of elements                        : 856
  128. Stream size                              : 12.6 MiB (0%)
  129. Title                                    : Chs/SUP  简英双语
  130. Language                                 : Chinese
  131. Default                                  : No
  132. Forced                                   : No
  133. Text #5
  134. ID                                       : 8
  135. Format                                   : PGS
  136. Codec ID                                 : S_HDMV/PGS
  137. Codec ID/Info                            : Picture based subtitle format used on BDs/HD-DVDs
  138. Duration                                 : 56 min 58 s
  139. Bit rate                                 : 31.2 kb/s
  140. Count of elements                        : 856
  141. Stream size                              : 12.7 MiB (0%)
  142. Title                                    : Cht/SUP  繁英双语
  143. Language                                 : Chinese
  144. Default                                  : No
  145. Forced                                   : No
  146. Text #6
  147. ID                                       : 9
  148. Format                                   : PGS
  149. Codec ID                                 : S_HDMV/PGS
  150. Codec ID/Info                            : Picture based subtitle format used on BDs/HD-DVDs
  151. Duration                                 : 56 min 58 s
  152. Bit rate                                 : 22.8 kb/s
  153. Count of elements                        : 990
  154. Stream size                              : 9.28 MiB (0%)
  155. Title                                    : Chs/SUP  国配简体
  156. Language                                 : Chinese
  157. Default                                  : No
  158. Forced                                   : No
  159. Menu
  160. 00:00:00.000                             : en:第 01 章
  161. 00:09:50.040                             : en:第 02 章
  162. 00:19:59.240                             : en:第 03 章
  163. 00:29:00.080                             : en:第 04 章
  164. 00:39:26.280                             : en:第 05 章
  165. 00:49:48.480                             : en:第 06 章
复制代码

















保举请利用qBittorrent,utorrent,transmission等标准BT软件下载!以获得最快速度。奉求保种!





回复

使用道具 举报

懒得打字嘛,点击右侧快捷回复 【右侧内容,后台自定义】
您需要登录后才可以回帖 登录 | 立即加入

本版积分规则

Archiver|小黑屋| 蓝光电影网 |网站地图

Copyright © 2021 Comsenz Inc. Powered by 蓝光电影网

蓝光电影网

本站内容由用户自主分享和转载自互联网,转载目的在于传递更多信息,并不代表本网赞同其观点和对其真实性负责。

如有侵权、违反国家法律政策行为,请联系我们,我们会第一时间及时清除和处理!

举报反馈邮箱:[email protected]

快速回复 返回顶部 返回列表