找回密码

蓝光电影网

查看: 53|回复: 0

[剧情] 绝命海拔[简繁英字幕].Everest.2015.1080p.AMZN.WEB-DL.H264.DDP5.1-TAGWEB 7.84GB

[复制链接]
蓝光币
8
发表于 2022-7-31 01:58:02 | 显示全部楼层 |阅读模式


◎标  题 绝命海拔
◎译  名 珠峰浩劫(港) / 圣母峰(台) / 珠穆朗玛 / 远征珠峰 / 珠穆朗玛峰
◎片  名 Everest
◎年  代 2015
◎产  地 英国 / 美国 / 冰岛
◎类  别 剧情 / 列传 / 冒险
◎语  言 英语
◎上映日期 2015-11-03(中国大陆) / 2015-09-02(威尼斯电影节) / 2015-09-25(美国)
◎IMDb评分 7.1/10 (210110人评价)
◎IMDb链接 https://www.imdb.com/title/tt2719848/
◎豆瓣评分 7.5/10 (57499人评价)
◎豆瓣链接 https://movie.douban.com/subject/22265299/
◎片  长 120分钟
◎导  演 巴塔萨·科马库 Baltasar Kormákur
◎编  剧 威廉姆·尼克尔森 William Nicholson
       西蒙·博福伊 Simon Beaufoy
       马克·麦道夫 Mark Medoff
       莱姆·多布斯 Lem Dobbs
◎演  员 杰森·克拉克 Jason Clarke
       乔什·布洛林 Josh Brolin
       约翰·浩克斯 John Hawkes
       罗宾·怀特 Robin Wright
       艾米丽·沃森 Emily Watson
       迈克尔·凯利 Michael Kelly
       凯拉·奈特莉 Keira Knightley
       萨姆·沃辛顿 Sam Worthington
       杰克·吉伦哈尔 Jake Gyllenhaal
       克莱夫·斯坦登 Clive Standen
       伊丽莎白·德比茨基 Elizabeth Debicki
       米娅·高斯 Mia Goth
       马丁·亨德森 Martin Henderson
       凡妮莎·柯比 Vanessa Kirby
       汤姆·古德曼-希尔 Tom Goodman-Hill
       森尚子 Naoko Mori
       迪米特里·格里特萨斯 Demetri Goritsas
◎标  签 冒险 / 爬山 / 灾难 / 实在事务 / 美国 / 剧情 / 2015 / 英国
◎简  介
    和睦谨慎的新西兰领队罗布·霍尔(杰森·克拉科 Jason Clarke 饰),他的队伍名为“冒险顾问”;而斯科特·费雪(杰克·吉伦哈尔 Jake Gyllenhaal 饰)则滑稽搞怪,他率领来自西雅图的“疯狂山脉”爬山队。他们相互合作,又相互帮助。                                                                      两支队伍中的勇士们来自各行各业,他们中有邮差、记者、医生,还有一位来自日本的职场女性。这些爬山者看似普通, 但每小我背后都有一个属于自己的胡想,激励着他们前往海拔8000米以上、氧气淡薄的珠峰。在攀缘进程中,他们的身材性能缓慢下降,在应对体力衰竭、缺氧、雪盲的同时,他们又极为不幸地遭受了一场剧烈的狂风雪,是以命悬一线。                                                                      影片改编自1996年的一次实在探险履历。
  1. ##### MediaInfo ######
  2. General
  3. Unique ID                                : 313487487723878268417039845771789759416 (0xEBD77E75760B5E98DB905B8490B873B8)
  4. Complete name                            : Everest.2015.1080p.AMZN.WEB-DL.H264.DDP5.1-TAGWEB.mkv
  5. Format                                   : Matroska
  6. Format version                           : Version 4
  7. File size                                : 7.84 GiB
  8. Duration                                 : 2 h 2 min
  9. Overall bit rate                         : 9 134 kb/s
  10. Encoded date                             : UTC 2022-07-16 03:13:01
  11. Writing application                      : mkvmerge v67.0.0 ('Under Stars') 64-bit
  12. Writing library                          : libebml v1.4.2 + libmatroska v1.6.4
  13. Video
  14. ID                                       : 1
  15. Format                                   : AVC
  16. Format/Info                              : Advanced Video Codec
  17. Format profile                           : [email protected]
  18. Format settings                          : CABAC / 4 Ref Frames
  19. Format settings, CABAC                   : Yes
  20. Format settings, Reference frames        : 4 frames
  21. Codec ID                                 : V_MPEG4/ISO/AVC
  22. Duration                                 : 2 h 2 min
  23. Bit rate                                 : 4 646 kb/s
  24. Width                                    : 1 920 pixels
  25. Height                                   : 800 pixels
  26. Display aspect ratio                     : 2.40:1
  27. Frame rate mode                          : Constant
  28. Frame rate                               : 23.976 (24000/1001/53875) FPS
  29. Color space                              : YUV
  30. Chroma subsampling                       : 4:2:0
  31. Bit depth                                : 8 bits
  32. Scan type                                : Progressive
  33. Bits/(Pixel*Frame)                       : 0.126
  34. Stream size                              : 3.99 GiB (51%)
  35. Language                                 : English
  36. Default                                  : Yes
  37. Forced                                   : No
  38. Color range                              : Limited
  39. Color primaries                          : BT.709
  40. Transfer characteristics                 : BT.709
  41. Matrix coefficients                      : BT.709
  42. Audio #1
  43. ID                                       : 2
  44. Format                                   : E-AC-3
  45. Format/Info                              : Enhanced AC-3
  46. Commercial name                          : Dolby Digital Plus
  47. Codec ID                                 : A_EAC3
  48. Duration                                 : 2 h 2 min
  49. Bit rate mode                            : Constant
  50. Bit rate                                 : 640 kb/s
  51. Channel(s)                               : 6 channels
  52. Channel layout                           : L R C LFE Ls Rs
  53. Sampling rate                            : 48.0 kHz
  54. Frame rate                               : 31.250 FPS (1536 SPF)
  55. Compression mode                         : Lossy
  56. Stream size                              : 562 MiB (7%)
  57. Title                                    : English
  58. Language                                 : English
  59. Service kind                             : Complete Main
  60. Default                                  : Yes
  61. Forced                                   : No
  62. Audio #2
  63. ID                                       : 3
  64. Format                                   : E-AC-3
  65. Format/Info                              : Enhanced AC-3
  66. Commercial name                          : Dolby Digital Plus
  67. Codec ID                                 : A_EAC3
  68. Duration                                 : 2 h 2 min
  69. Bit rate mode                            : Constant
  70. Bit rate                                 : 640 kb/s
  71. Channel(s)                               : 6 channels
  72. Channel layout                           : L R C LFE Ls Rs
  73. Sampling rate                            : 48.0 kHz
  74. Frame rate                               : 31.250 FPS (1536 SPF)
  75. Compression mode                         : Lossy
  76. Stream size                              : 562 MiB (7%)
  77. Title                                    : espa?ol
  78. Language                                 : Spanish
  79. Service kind                             : Complete Main
  80. Default                                  : No
  81. Forced                                   : No
  82. Audio #3
  83. ID                                       : 4
  84. Format                                   : E-AC-3
  85. Format/Info                              : Enhanced AC-3
  86. Commercial name                          : Dolby Digital Plus
  87. Codec ID                                 : A_EAC3
  88. Duration                                 : 2 h 2 min
  89. Bit rate mode                            : Constant
  90. Bit rate                                 : 640 kb/s
  91. Channel(s)                               : 6 channels
  92. Channel layout                           : L R C LFE Ls Rs
  93. Sampling rate                            : 48.0 kHz
  94. Frame rate                               : 31.250 FPS (1536 SPF)
  95. Compression mode                         : Lossy
  96. Stream size                              : 562 MiB (7%)
  97. Title                                    : fran?ais
  98. Language                                 : French
  99. Service kind                             : Complete Main
  100. Default                                  : No
  101. Forced                                   : No
  102. Audio #4
  103. ID                                       : 5
  104. Format                                   : E-AC-3
  105. Format/Info                              : Enhanced AC-3
  106. Commercial name                          : Dolby Digital Plus
  107. Codec ID                                 : A_EAC3
  108. Duration                                 : 2 h 2 min
  109. Bit rate mode                            : Constant
  110. Bit rate                                 : 640 kb/s
  111. Channel(s)                               : 6 channels
  112. Channel layout                           : L R C LFE Ls Rs
  113. Sampling rate                            : 48.0 kHz
  114. Frame rate                               : 31.250 FPS (1536 SPF)
  115. Compression mode                         : Lossy
  116. Stream size                              : 562 MiB (7%)
  117. Title                                    : italiano
  118. Language                                 : Italian
  119. Service kind                             : Complete Main
  120. Default                                  : No
  121. Forced                                   : No
  122. Audio #5
  123. ID                                       : 6
  124. Format                                   : E-AC-3
  125. Format/Info                              : Enhanced AC-3
  126. Commercial name                          : Dolby Digital Plus
  127. Codec ID                                 : A_EAC3
  128. Duration                                 : 2 h 2 min
  129. Bit rate mode                            : Constant
  130. Bit rate                                 : 640 kb/s
  131. Channel(s)                               : 6 channels
  132. Channel layout                           : L R C LFE Ls Rs
  133. Sampling rate                            : 48.0 kHz
  134. Frame rate                               : 31.250 FPS (1536 SPF)
  135. Compression mode                         : Lossy
  136. Stream size                              : 562 MiB (7%)
  137. Title                                    : polski
  138. Language                                 : Polish
  139. Service kind                             : Complete Main
  140. Default                                  : No
  141. Forced                                   : No
  142. Audio #6
  143. ID                                       : 7
  144. Format                                   : E-AC-3
  145. Format/Info                              : Enhanced AC-3
  146. Commercial name                          : Dolby Digital Plus
  147. Codec ID                                 : A_EAC3
  148. Duration                                 : 2 h 2 min
  149. Bit rate mode                            : Constant
  150. Bit rate                                 : 640 kb/s
  151. Channel(s)                               : 6 channels
  152. Channel layout                           : L R C LFE Ls Rs
  153. Sampling rate                            : 48.0 kHz
  154. Frame rate                               : 31.250 FPS (1536 SPF)
  155. Compression mode                         : Lossy
  156. Stream size                              : 562 MiB (7%)
  157. Title                                    : português
  158. Language                                 : Portuguese
  159. Service kind                             : Complete Main
  160. Default                                  : No
  161. Forced                                   : No
  162. Audio #7
  163. ID                                       : 8
  164. Format                                   : E-AC-3
  165. Format/Info                              : Enhanced AC-3
  166. Commercial name                          : Dolby Digital Plus
  167. Codec ID                                 : A_EAC3
  168. Duration                                 : 2 h 2 min
  169. Bit rate mode                            : Constant
  170. Bit rate                                 : 640 kb/s
  171. Channel(s)                               : 6 channels
  172. Channel layout                           : L R C LFE Ls Rs
  173. Sampling rate                            : 48.0 kHz
  174. Frame rate                               : 31.250 FPS (1536 SPF)
  175. Compression mode                         : Lossy
  176. Stream size                              : 562 MiB (7%)
  177. Title                                    : Türk?e
  178. Language                                 : Turkish
  179. Service kind                             : Complete Main
  180. Default                                  : No
  181. Forced                                   : No
  182. Text #1
  183. ID                                       : 9
  184. Format                                   : UTF-8
  185. Codec ID                                 : S_TEXT/UTF8
  186. Codec ID/Info                            : UTF-8 Plain Text
  187. Duration                                 : 1 h 52 min
  188. Bit rate                                 : 51 b/s
  189. Count of elements                        : 1604
  190. Stream size                              : 42.2 KiB (0%)
  191. Title                                    : 中文 (简体)
  192. Language                                 : Chinese
  193. Default                                  : Yes
  194. Forced                                   : No
  195. Text #2
  196. ID                                       : 10
  197. Format                                   : UTF-8
  198. Codec ID                                 : S_TEXT/UTF8
  199. Codec ID/Info                            : UTF-8 Plain Text
  200. Duration                                 : 1 h 52 min
  201. Bit rate                                 : 47 b/s
  202. Count of elements                        : 1641
  203. Stream size                              : 38.9 KiB (0%)
  204. Title                                    : 中文 (繁體)
  205. Language                                 : Chinese
  206. Default                                  : No
  207. Forced                                   : No
  208. Text #3
  209. ID                                       : 11
  210. Format                                   : UTF-8
  211. Codec ID                                 : S_TEXT/UTF8
  212. Codec ID/Info                            : UTF-8 Plain Text
  213. Duration                                 : 1 h 50 min
  214. Bit rate                                 : 63 b/s
  215. Count of elements                        : 1660
  216. Stream size                              : 51.6 KiB (0%)
  217. Title                                    : English (United States)
  218. Language                                 : English
  219. Default                                  : No
  220. Forced                                   : No
  221. Text #4
  222. ID                                       : 12
  223. Format                                   : UTF-8
  224. Codec ID                                 : S_TEXT/UTF8
  225. Codec ID/Info                            : UTF-8 Plain Text
  226. Duration                                 : 1 h 52 min
  227. Bit rate                                 : 92 b/s
  228. Count of elements                        : 1652
  229. Stream size                              : 76.5 KiB (0%)
  230. Title                                    : ??????? (??????)
  231. Language                                 : Arabic
  232. Default                                  : No
  233. Forced                                   : No
  234. Text #5
  235. ID                                       : 13
  236. Format                                   : UTF-8
  237. Codec ID                                 : S_TEXT/UTF8
  238. Codec ID/Info                            : UTF-8 Plain Text
  239. Duration                                 : 1 h 59 min
  240. Bit rate                                 : 38 b/s
  241. Count of elements                        : 1416
  242. Stream size                              : 34.0 KiB (0%)
  243. Title                                    : ?e?tina (?esko)
  244. Language                                 : Czech
  245. Default                                  : No
  246. Forced                                   : No
  247. Text #6
  248. ID                                       : 14
  249. Format                                   : UTF-8
  250. Codec ID                                 : S_TEXT/UTF8
  251. Codec ID/Info                            : UTF-8 Plain Text
  252. Duration                                 : 1 h 59 min
  253. Bit rate                                 : 46 b/s
  254. Count of elements                        : 1248
  255. Stream size                              : 40.7 KiB (0%)
  256. Title                                    : dansk (Danmark)
  257. Language                                 : Danish
  258. Default                                  : No
  259. Forced                                   : No
  260. Text #7
  261. ID                                       : 15
  262. Format                                   : UTF-8
  263. Codec ID                                 : S_TEXT/UTF8
  264. Codec ID/Info                            : UTF-8 Plain Text
  265. Duration                                 : 1 h 50 min
  266. Bit rate                                 : 59 b/s
  267. Count of elements                        : 1544
  268. Stream size                              : 48.1 KiB (0%)
  269. Title                                    : Deutsch (Deutschland)
  270. Language                                 : German
  271. Default                                  : No
  272. Forced                                   : No
  273. Text #8
  274. ID                                       : 16
  275. Format                                   : UTF-8
  276. Codec ID                                 : S_TEXT/UTF8
  277. Codec ID/Info                            : UTF-8 Plain Text
  278. Duration                                 : 1 h 52 min
  279. Bit rate                                 : 95 b/s
  280. Count of elements                        : 1605
  281. Stream size                              : 79.2 KiB (0%)
  282. Title                                    : Ελληνικ? (Ελλ?δα)
  283. Language                                 : Greek
  284. Default                                  : No
  285. Forced                                   : No
  286. Text #9
  287. ID                                       : 17
  288. Format                                   : UTF-8
  289. Codec ID                                 : S_TEXT/UTF8
  290. Codec ID/Info                            : UTF-8 Plain Text
  291. Duration                                 : 1 h 52 min
  292. Bit rate                                 : 52 b/s
  293. Count of elements                        : 1596
  294. Stream size                              : 43.2 KiB (0%)
  295. Title                                    : espa?ol (Latinoamérica)
  296. Language                                 : Spanish
  297. Default                                  : No
  298. Forced                                   : No
  299. Text #10
  300. ID                                       : 18
  301. Format                                   : UTF-8
  302. Codec ID                                 : S_TEXT/UTF8
  303. Codec ID/Info                            : UTF-8 Plain Text
  304. Duration                                 : 1 h 52 min
  305. Bit rate                                 : 49 b/s
  306. Count of elements                        : 1540
  307. Stream size                              : 41.2 KiB (0%)
  308. Title                                    : espa?ol (Espa?a)
  309. Language                                 : Spanish
  310. Default                                  : No
  311. Forced                                   : No
  312. Text #11
  313. ID                                       : 19
  314. Format                                   : UTF-8
  315. Codec ID                                 : S_TEXT/UTF8
  316. Codec ID/Info                            : UTF-8 Plain Text
  317. Duration                                 : 1 h 59 min
  318. Bit rate                                 : 37 b/s
  319. Count of elements                        : 1103
  320. Stream size                              : 32.7 KiB (0%)
  321. Title                                    : suomi (Suomi)
  322. Language                                 : Finnish
  323. Default                                  : No
  324. Forced                                   : No
  325. Text #12
  326. ID                                       : 20
  327. Format                                   : UTF-8
  328. Codec ID                                 : S_TEXT/UTF8
  329. Codec ID/Info                            : UTF-8 Plain Text
  330. Duration                                 : 1 h 50 min
  331. Bit rate                                 : 73 b/s
  332. Count of elements                        : 1732
  333. Stream size                              : 59.5 KiB (0%)
  334. Title                                    : Filipino (Pilipinas)
  335. Language                                 : fil
  336. Default                                  : No
  337. Forced                                   : No
  338. Text #13
  339. ID                                       : 21
  340. Format                                   : UTF-8
  341. Codec ID                                 : S_TEXT/UTF8
  342. Codec ID/Info                            : UTF-8 Plain Text
  343. Duration                                 : 1 h 52 min
  344. Bit rate                                 : 58 b/s
  345. Count of elements                        : 1603
  346. Stream size                              : 48.0 KiB (0%)
  347. Title                                    : fran?ais (Canada)
  348. Language                                 : French
  349. Default                                  : No
  350. Forced                                   : No
  351. Text #14
  352. ID                                       : 22
  353. Format                                   : UTF-8
  354. Codec ID                                 : S_TEXT/UTF8
  355. Codec ID/Info                            : UTF-8 Plain Text
  356. Duration                                 : 1 h 52 min
  357. Bit rate                                 : 44 b/s
  358. Count of elements                        : 1465
  359. Stream size                              : 36.4 KiB (0%)
  360. Title                                    : fran?ais (France)
  361. Language                                 : French
  362. Default                                  : No
  363. Forced                                   : No
  364. Text #15
  365. ID                                       : 23
  366. Format                                   : UTF-8
  367. Codec ID                                 : S_TEXT/UTF8
  368. Codec ID/Info                            : UTF-8 Plain Text
  369. Duration                                 : 1 h 52 min
  370. Bit rate                                 : 85 b/s
  371. Count of elements                        : 1599
  372. Stream size                              : 70.8 KiB (0%)
  373. Title                                    : ????? (?????)
  374. Language                                 : Hebrew
  375. Default                                  : No
  376. Forced                                   : No
  377. Text #16
  378. ID                                       : 24
  379. Format                                   : UTF-8
  380. Codec ID                                 : S_TEXT/UTF8
  381. Codec ID/Info                            : UTF-8 Plain Text
  382. Duration                                 : 1 h 52 min
  383. Bit rate                                 : 135 b/s
  384. Count of elements                        : 1616
  385. Stream size                              : 112 KiB (0%)
  386. Title                                    : ?????? (????)
  387. Language                                 : Hindi
  388. Default                                  : No
  389. Forced                                   : No
  390. Text #17
  391. ID                                       : 25
  392. Format                                   : UTF-8
  393. Codec ID                                 : S_TEXT/UTF8
  394. Codec ID/Info                            : UTF-8 Plain Text
  395. Duration                                 : 1 h 52 min
  396. Bit rate                                 : 53 b/s
  397. Count of elements                        : 1589
  398. Stream size                              : 44.0 KiB (0%)
  399. Title                                    : magyar (Magyarország)
  400. Language                                 : Hungarian
  401. Default                                  : No
  402. Forced                                   : No
  403. Text #18
  404. ID                                       : 26
  405. Format                                   : UTF-8
  406. Codec ID                                 : S_TEXT/UTF8
  407. Codec ID/Info                            : UTF-8 Plain Text
  408. Duration                                 : 1 h 52 min
  409. Bit rate                                 : 49 b/s
  410. Count of elements                        : 1605
  411. Stream size                              : 41.1 KiB (0%)
  412. Title                                    : bahasa Indonesia (Indonesia)
  413. Language                                 : Indonesian
  414. Default                                  : No
  415. Forced                                   : No
  416. Text #19
  417. ID                                       : 27
  418. Format                                   : UTF-8
  419. Codec ID                                 : S_TEXT/UTF8
  420. Codec ID/Info                            : UTF-8 Plain Text
  421. Duration                                 : 1 h 52 min
  422. Bit rate                                 : 52 b/s
  423. Count of elements                        : 1603
  424. Stream size                              : 43.1 KiB (0%)
  425. Title                                    : italiano (Italia)
  426. Language                                 : Italian
  427. Default                                  : No
  428. Forced                                   : No
  429. Text #20
  430. ID                                       : 28
  431. Format                                   : UTF-8
  432. Codec ID                                 : S_TEXT/UTF8
  433. Codec ID/Info                            : UTF-8 Plain Text
  434. Duration                                 : 1 h 52 min
  435. Bit rate                                 : 50 b/s
  436. Count of elements                        : 1570
  437. Stream size                              : 42.1 KiB (0%)
  438. Title                                    : ??? (????)
  439. Language                                 : Korean
  440. Default                                  : No
  441. Forced                                   : No
  442. Text #21
  443. ID                                       : 29
  444. Format                                   : UTF-8
  445. Codec ID                                 : S_TEXT/UTF8
  446. Codec ID/Info                            : UTF-8 Plain Text
  447. Duration                                 : 1 h 59 min
  448. Bit rate                                 : 55 b/s
  449. Count of elements                        : 1690
  450. Stream size                              : 49.1 KiB (0%)
  451. Title                                    : bahasa Malaysia (Malaysia)
  452. Language                                 : Malay
  453. Default                                  : No
  454. Forced                                   : No
  455. Text #22
  456. ID                                       : 30
  457. Format                                   : UTF-8
  458. Codec ID                                 : S_TEXT/UTF8
  459. Codec ID/Info                            : UTF-8 Plain Text
  460. Duration                                 : 1 h 59 min
  461. Bit rate                                 : 40 b/s
  462. Count of elements                        : 1379
  463. Stream size                              : 35.7 KiB (0%)
  464. Title                                    : norsk bokm?l (Norge)
  465. Language                                 : Norwegian Bokmal
  466. Default                                  : No
  467. Forced                                   : No
  468. Text #23
  469. ID                                       : 31
  470. Format                                   : UTF-8
  471. Codec ID                                 : S_TEXT/UTF8
  472. Codec ID/Info                            : UTF-8 Plain Text
  473. Duration                                 : 1 h 52 min
  474. Bit rate                                 : 48 b/s
  475. Count of elements                        : 1264
  476. Stream size                              : 40.2 KiB (0%)
  477. Title                                    : Nederlands (Nederland)
  478. Language                                 : Dutch
  479. Default                                  : No
  480. Forced                                   : No
  481. Text #24
  482. ID                                       : 32
  483. Format                                   : UTF-8
  484. Codec ID                                 : S_TEXT/UTF8
  485. Codec ID/Info                            : UTF-8 Plain Text
  486. Duration                                 : 1 h 59 min
  487. Bit rate                                 : 37 b/s
  488. Count of elements                        : 1349
  489. Stream size                              : 33.3 KiB (0%)
  490. Title                                    : polski (Polska)
  491. Language                                 : Polish
  492. Default                                  : No
  493. Forced                                   : No
  494. Text #25
  495. ID                                       : 33
  496. Format                                   : UTF-8
  497. Codec ID                                 : S_TEXT/UTF8
  498. Codec ID/Info                            : UTF-8 Plain Text
  499. Duration                                 : 1 h 52 min
  500. Bit rate                                 : 45 b/s
  501. Count of elements                        : 1603
  502. Stream size                              : 37.9 KiB (0%)
  503. Title                                    : português (Brasil)
  504. Language                                 : Portuguese
  505. Default                                  : No
  506. Forced                                   : No
  507. Text #26
  508. ID                                       : 34
  509. Format                                   : UTF-8
  510. Codec ID                                 : S_TEXT/UTF8
  511. Codec ID/Info                            : UTF-8 Plain Text
  512. Duration                                 : 1 h 52 min
  513. Bit rate                                 : 47 b/s
  514. Count of elements                        : 1519
  515. Stream size                              : 38.8 KiB (0%)
  516. Title                                    : roman? (Romania)
  517. Language                                 : Romanian
  518. Default                                  : No
  519. Forced                                   : No
  520. Text #27
  521. ID                                       : 35
  522. Format                                   : UTF-8
  523. Codec ID                                 : S_TEXT/UTF8
  524. Codec ID/Info                            : UTF-8 Plain Text
  525. Duration                                 : 1 h 52 min
  526. Bit rate                                 : 85 b/s
  527. Count of elements                        : 1604
  528. Stream size                              : 70.9 KiB (0%)
  529. Title                                    : русский (Россия)
  530. Language                                 : Russian
  531. Default                                  : No
  532. Forced                                   : No
  533. Text #28
  534. ID                                       : 36
  535. Format                                   : UTF-8
  536. Codec ID                                 : S_TEXT/UTF8
  537. Codec ID/Info                            : UTF-8 Plain Text
  538. Duration                                 : 1 h 52 min
  539. Bit rate                                 : 50 b/s
  540. Count of elements                        : 1322
  541. Stream size                              : 42.0 KiB (0%)
  542. Title                                    : svenska (Sverige)
  543. Language                                 : Swedish
  544. Default                                  : No
  545. Forced                                   : No
  546. Text #29
  547. ID                                       : 37
  548. Format                                   : UTF-8
  549. Codec ID                                 : S_TEXT/UTF8
  550. Codec ID/Info                            : UTF-8 Plain Text
  551. Duration                                 : 1 h 52 min
  552. Bit rate                                 : 121 b/s
  553. Count of elements                        : 1610
  554. Stream size                              : 101 KiB (0%)
  555. Title                                    : ??? (???)
  556. Language                                 : Thai
  557. Default                                  : No
  558. Forced                                   : No
  559. Text #30
  560. ID                                       : 38
  561. Format                                   : UTF-8
  562. Codec ID                                 : S_TEXT/UTF8
  563. Codec ID/Info                            : UTF-8 Plain Text
  564. Duration                                 : 1 h 52 min
  565. Bit rate                                 : 56 b/s
  566. Count of elements                        : 1605
  567. Stream size                              : 47.0 KiB (0%)
  568. Title                                    : Türk?e (Türkiye)
  569. Language                                 : Turkish
  570. Default                                  : No
  571. Forced                                   : No
  572. Text #31
  573. ID                                       : 39
  574. Format                                   : UTF-8
  575. Codec ID                                 : S_TEXT/UTF8
  576. Codec ID/Info                            : UTF-8 Plain Text
  577. Duration                                 : 1 h 52 min
  578. Bit rate                                 : 73 b/s
  579. Count of elements                        : 1601
  580. Stream size                              : 61.1 KiB (0%)
  581. Title                                    : Ti?ng Vi?t (Vi?t Nam)
  582. Language                                 : Vietnamese
  583. Default                                  : No
  584. Forced                                   : No
  585. Menu
  586. 00:00:00.000                             : en:Studio Logo
  587. 00:01:14.000                             : en:Mt. Everest facts
  588. 00:01:49.000                             : en:Title Sequence
  589. 00:03:05.000                             : en:The thrill seekers arrive in Nepal
  590. 00:10:22.000                             : en:The adventure seekers hike to base camp
  591. 00:15:13.000                             : en:Welcome to base camp
  592. 00:18:34.000                             : en:Caroline explains the medical risks involved in the expedition
  593. 00:20:59.000                             : en:Beck calls Peach to wish her a happy anniversary
  594. 00:25:06.000                             : en:The base camp parties into the night
  595. 00:26:32.000                             : en:Beck experiences a death defying experience crossing a bridge
  596. 00:30:13.000                             : en:Rob proposes a plan for the groups to climb the mountain
  597. 00:33:16.000                             : en:Rob holds a meeting with the other tour leaders to collaborate
  598. 00:34:42.000                             : en:Rob gets the news on the sex of the baby before the summit
  599. 00:40:25.000                             : en:The climbers climb to camp three
  600. 00:47:46.000                             : en:The teams climb to camp overnight at the fourth campsite
  601. 00:52:16.000                             : en:The team experiences a setback with the ropes
  602. 00:59:55.000                             : en:The team reaches the top
  603. 01:06:46.000                             : en:Rob stays behind to help Doug
  604. 01:21:05.000                             : en:The harsh storm separates the group
  605. 01:27:01.000                             : en:May 11th
  606. 01:34:24.000                             : en:Good night, I love you
  607. 01:41:22.000                             : en:A moment of strength
  608. 01:49:56.000                             : en:Reunion
  609. 01:54:08.000                             : en:End Credits
复制代码

















保举请利用qBittorrent,utorrent,transmission等标准BT软件下载!以获得最快速度。奉求保种!





回复

使用道具 举报

懒得打字嘛,点击右侧快捷回复 【右侧内容,后台自定义】
您需要登录后才可以回帖 登录 | 立即加入

本版积分规则

Archiver|小黑屋| 蓝光电影网 |网站地图

Copyright © 2021 Comsenz Inc. Powered by 蓝光电影网

蓝光电影网

本站内容由用户自主分享和转载自互联网,转载目的在于传递更多信息,并不代表本网赞同其观点和对其真实性负责。

如有侵权、违反国家法律政策行为,请联系我们,我们会第一时间及时清除和处理!

举报反馈邮箱:[email protected]

快速回复 返回顶部 返回列表