找回密码

蓝光电影网

查看: 141|回复: 0

[剧情] 鸟瞰地球[共6部合集][简繁英双语字幕].BBC.Earth.Flight.2011.E01-E06.BluRay.1080p.DTS-HD.MA.2.0.x265.10bit-ALT 42.48GB

[复制链接]
蓝光币
8
发表于 2022-7-31 01:58:07 | 显示全部楼层 |阅读模式


◎标  题 俯瞰地球
◎译  名 飞越地球 / 万里傲翔
◎片  名 Earthflight
◎年  代 2011
◎产  地 英国
◎类  别 记载片
◎语  言 英语
◎上映日期 2011-12-29(英国)
◎IMDb评分 8.5/10 (584人评价)
◎IMDb链接 https://www.imdb.com/title/tt2346091/
◎豆瓣评分 9.4/10 (2092人评价)
◎豆瓣链接 https://movie.douban.com/subject/10428497/
◎片  长 60分钟
◎导  演 约翰·唐纳 John Downer
◎演  员 大卫·田纳特 David Tennant
◎标  签 记载片 / BBC / 自然 / 英国 / 动物 / 鸟 / 2011 / BBC记载片
◎简  介
  由英国广播公司(BBC)经心打造、全高清钜制的大自然生态记载片《万里傲翔》。拍摄时候跨越三年,跨越地球六大洲,包括南美洲、北美洲、非洲、欧洲、亚洲及澳洲,跨越四十个国家。摄制队采用了尖真个摄影器械,糅合新奇的拍摄手法,甚至把轻型摄录机挂在留鸟颈项上拍摄,由留鸟们亲身领航,带大师翱翔万里,横跨陆地和陆洲,进入留鸟与大自然的奇妙天下 。节目更被英国《泰晤士报》赞誉为「使人冷艳」之作。                                       
                                    第1集                                       
                                    North America                                       
                                    摄制队首站来到北美洲。一群雪雁迁移时,不幸遇上来势汹汹的猎食者 - 美国国鸟秃鹰。雪雁顿时三五成群,协力匹敌凶悍的仇敌。但前面还有更严重的考验—要飞越航道狭窄的美国大峡谷,及抵抗急湍的气流。                                       
                                    在加洲,鹈鹕(又称塘鹅)在海面翱翔,魔鬼鱼正在畅泳,岸边的银汉鱼则预备产卵;在阿拉斯加,一群啡熊在河滨捕食三文鱼,秃鹰看准方针,飞过啡熊掠取鱼获。在...
  1. 合集文件列表:
  2. 1.BBC.Earth.Flight.2011.E01.BluRay.1080p.DTS-HD.MA.2.0.x265.10bit-ALT.mkv 7.81GB
  3. 2.BBC.Earth.Flight.2011.E02.BluRay.1080p.DTS-HD.MA.2.0.x265.10bit-ALT.mkv 7.03GB
  4. 3.BBC.Earth.Flight.2011.E03.BluRay.1080p.DTS-HD.MA.2.0.x265.10bit-ALT.mkv 6.86GB
  5. 4.BBC.Earth.Flight.2011.E04.BluRay.1080p.DTS-HD.MA.2.0.x265.10bit-ALT.mkv 7.47GB
  6. 5.BBC.Earth.Flight.2011.E05.BluRay.1080p.DTS-HD.MA.2.0.x265.10bit-ALT.mkv 6.62GB
  7. 6.BBC.Earth.Flight.2011.E06.BluRay.1080p.DTS-HD.MA.2.0.x265.10bit-ALT.mkv 6.68GB
复制代码
  1. ##### MediaInfo ######
  2. General
  3. Unique ID                                : 287648360193560396529272665060737850881 (0xD8670F1CEC0F3B27F5505623F5149E01)
  4. Complete name                            : BBC.Earth.Flight.2011.E01.BluRay.1080p.DTS-HD.MA.2.0.x265.10bit-ALT.mkv
  5. Format                                   : Matroska
  6. Format version                           : Version 4
  7. File size                                : 7.81 GiB
  8. Duration                                 : 59 min 15 s
  9. Overall bit rate mode                    : Variable
  10. Overall bit rate                         : 18.9 Mb/s
  11. Encoded date                             : UTC 2020-05-09 02:00:57
  12. Writing application                      : mkvmerge v46.0.0 ('No Deeper Escape') 64-bit
  13. Writing library                          : libebml v1.3.10 + libmatroska v1.5.2
  14. Video
  15. ID                                       : 1
  16. Format                                   : HEVC
  17. Format/Info                              : High Efficiency Video Coding
  18. Format profile                           : Main [email protected]@High
  19. Codec ID                                 : V_MPEGH/ISO/HEVC
  20. Duration                                 : 59 min 15 s
  21. Bit rate                                 : 17.6 Mb/s
  22. Width                                    : 1 920 pixels
  23. Height                                   : 1 080 pixels
  24. Display aspect ratio                     : 16:9
  25. Frame rate mode                          : Constant
  26. Frame rate                               : 25.000 FPS
  27. Color space                              : YUV
  28. Chroma subsampling                       : 4:2:0
  29. Bit depth                                : 10 bits
  30. Bits/(Pixel*Frame)                       : 0.339
  31. Stream size                              : 7.28 GiB (93%)
  32. Title                                    : HEVC, [email protected]@High, 25 fps
  33. Writing library                          : x265 3.3+1-g396395b2b:[Windows][GCC 9.2.0][64 bit] 10bit
  34. Encoding settings                        : cpuid=538751111039 / frame-threads=4 / numa-pools=16 / wpp / pmode / pme / no-psnr / no-ssim / log-level=2 / input-csp=1 / input-res=1920x1080 / interlace=0 / total-frames=88876 / level-idc=51 / high-tier=1 / uhd-bd=0 / ref=5 / no-allow-non-conformance / no-repeat-headers / annexb / no-aud / no-hrd / info / hash=0 / no-temporal-layers / open-gop / min-keyint=24 / keyint=240 / gop-lookahead=0 / bframes=6 / b-adapt=2 / b-pyramid / bframe-bias=0 / rc-lookahead=40 / lookahead-slices=0 / NTM4NzU=uuDQuD2mJt9fsCf / scenecut=40 / hist-scenecut=0 / radl=0 / no-splice / no-intra-refresh / ctu=32 / min-cu-size=8 / no-rect / no-amp / max-tu-size=32 / tu-inter-depth=3 / tu-intra-depth=3 / limit-tu=4 / rdoq-level=2 / dynamic-rd=0.00 / no-ssim-rd / signhide / no-tskip / nr-intra=0 / nr-inter=0 / no-constrained-intra / no-strong-intra-smoothing / max-merge=4 / limit-refs=1 / limit-modes / me=3 / subme=4 / merange=25 / temporal-mvp / no-frame-dup / no-hme / weightp / weightb / no-analyze-src-pics / deblock=-3:-3 / no-sao / no-sao-non-deblock / rd=6 / selective-sao=0 / no-early-skip / rskip / no-fast-intra / no-tskip-fast / no-cu-lossless / b-intra / no-splitrd-skip / rdpenalty=0 / psy-rd=2.00 / psy-rdoq=1.00 / no-rd-refine / no-lossless / cbqpoffs=0 / crqpoffs=0 / rc=crf / crf=18.5 / qcomp=0.65 / qpstep=4 / stats-write=0 / stats-read=0 / vbv-maxrate=80000 / vbv-bufsize=80000 / vbv-init=0.9 / crf-max=0.0 / crf-min=0.0 / ipratio=1.40 / pbratio=1.30 / aq-mode=2 / aq-strength=0.85 / cutree / zone-count=0 / no-strict-cbr / qg-size=32 / no-rc-grain / qpmax=69 / qpmin=0 / no-const-vbv / sar=1 / overscan=0 / videoformat=5 / range=0 / colorprim=1 / transfer=1 / colormatrix=1 / chromaloc=0 / display-window=0 / cll=0,0 / min-luma=0 / max-luma=1023 / log2-max-poc-lsb=8 / vui-timing-info / vui-hrd-info / slices=1 / no-opt-qp-pps / no-opt-ref-list-length-pps / no-multi-pass-opt-rps / scenecut-bias=0.05 / hist-threshold=0.01 / no-opt-cu-delta-qp / no-aq-motion / no-hdr10 / no-hdr10-opt / no-dhdr10-opt / no-idr-recovery-sei / analysis-reuse-level=0 / analysis-save-reuse-level=0 / analysis-load-reuse-level=0 / scale-factor=0 / refine-intra=0 / refine-inter=0 / refine-mv=1 / refine-ctu-distortion=0 / no-limit-sao / ctu-info=0 / no-lowpass-dct / refine-analysis-type=0 / copy-pic=1 / max-ausize-factor=1.0 / no-dynamic-refine / no-single-sei / no-hevc-aq / no-svt / no-field / qp-adaptation-range=1.00 / no-scenecut-aware-qpconformance-window-offsets / right=0 / bottom=0 / NTM4NzU=
  35. Language                                 : English
  36. Default                                  : Yes
  37. Forced                                   : No
  38. Color range                              : Limited
  39. Color primaries                          : BT.709
  40. Transfer characteristics                 : BT.709
  41. Matrix coefficients                      : BT.709
  42. Audio
  43. ID                                       : 2
  44. Format                                   : DTS XLL
  45. Format/Info                              : Digital Theater Systems
  46. Commercial name                          : DTS-HD Master Audio
  47. Codec ID                                 : A_DTS
  48. Duration                                 : 59 min 15 s
  49. Bit rate mode                            : Variable
  50. Bit rate                                 : 1 125 kb/s
  51. Channel(s)                               : 2 channels
  52. Channel layout                           : L R
  53. Sampling rate                            : 48.0 kHz
  54. Frame rate                               : 93.750 FPS (512 SPF)
  55. Bit depth                                : 16 bits
  56. Compression mode                         : Lossless
  57. Stream size                              : 477 MiB (6%)
  58. Title                                    : English DTS-HD MA5.1 @ ~1110 kbps
  59. Language                                 : English
  60. Default                                  : Yes
  61. Forced                                   : No
  62. Text #1
  63. ID                                       : 3
  64. Format                                   : PGS
  65. Codec ID                                 : S_HDMV/PGS
  66. Codec ID/Info                            : Picture based subtitle format used on BDs/HD-DVDs
  67. Duration                                 : 58 min 28 s
  68. Bit rate                                 : 35.1 kb/s
  69. Count of elements                        : 822
  70. Stream size                              : 14.7 MiB (0%)
  71. Title                                    : Eng/SUP
  72. Language                                 : English
  73. Default                                  : No
  74. Forced                                   : No
  75. Text #2
  76. ID                                       : 4
  77. Format                                   : PGS
  78. Codec ID                                 : S_HDMV/PGS
  79. Codec ID/Info                            : Picture based subtitle format used on BDs/HD-DVDs
  80. Duration                                 : 58 min 4 s
  81. Bit rate                                 : 17.8 kb/s
  82. Count of elements                        : 936
  83. Stream size                              : 7.38 MiB (0%)
  84. Title                                    : Chs/SUP  简体
  85. Language                                 : Chinese
  86. Default                                  : No
  87. Forced                                   : No
  88. Text #3
  89. ID                                       : 5
  90. Format                                   : PGS
  91. Codec ID                                 : S_HDMV/PGS
  92. Codec ID/Info                            : Picture based subtitle format used on BDs/HD-DVDs
  93. Duration                                 : 58 min 4 s
  94. Bit rate                                 : 18.5 kb/s
  95. Count of elements                        : 936
  96. Stream size                              : 7.69 MiB (0%)
  97. Title                                    : Cht/SUP  繁体
  98. Language                                 : Chinese
  99. Default                                  : No
  100. Forced                                   : No
  101. Text #4
  102. ID                                       : 6
  103. Format                                   : PGS
  104. Codec ID                                 : S_HDMV/PGS
  105. Codec ID/Info                            : Picture based subtitle format used on BDs/HD-DVDs
  106. Duration                                 : 58 min 4 s
  107. Bit rate                                 : 33.4 kb/s
  108. Count of elements                        : 936
  109. Stream size                              : 13.9 MiB (0%)
  110. Title                                    : Chs/SUP  简英双语
  111. Language                                 : Chinese
  112. Default                                  : Yes
  113. Forced                                   : No
  114. Text #5
  115. ID                                       : 7
  116. Format                                   : PGS
  117. Codec ID                                 : S_HDMV/PGS
  118. Codec ID/Info                            : Picture based subtitle format used on BDs/HD-DVDs
  119. Duration                                 : 58 min 4 s
  120. Bit rate                                 : 34.2 kb/s
  121. Count of elements                        : 936
  122. Stream size                              : 14.2 MiB (0%)
  123. Title                                    : Cht/SUP  繁英双语
  124. Language                                 : Chinese
  125. Default                                  : No
  126. Forced                                   : No
  127. Menu
  128. 00:00:00.000                             : en:第 01 章
  129. 00:02:03.000                             : en:第 02 章
  130. 00:16:06.640                             : en:第 03 章
  131. 00:31:09.760                             : en:第 04 章
  132. 00:44:36.160                             : en:第 05 章
  133. 00:58:31.800                             : en:第 06 章
复制代码

















保举请利用qBittorrent,utorrent,transmission等标准BT软件下载!以获得最快速度。奉求保种!





回复

使用道具 举报

懒得打字嘛,点击右侧快捷回复 【右侧内容,后台自定义】
您需要登录后才可以回帖 登录 | 立即加入

本版积分规则

Archiver|小黑屋| 蓝光电影网 |网站地图

Copyright © 2021 Comsenz Inc. Powered by 蓝光电影网

蓝光电影网

本站内容由用户自主分享和转载自互联网,转载目的在于传递更多信息,并不代表本网赞同其观点和对其真实性负责。

如有侵权、违反国家法律政策行为,请联系我们,我们会第一时间及时清除和处理!

举报反馈邮箱:[email protected]

快速回复 返回顶部 返回列表