找回密码

蓝光电影网

查看: 8|回复: 0

[剧情] 谨慎[简繁英字幕].Discreet.2017.1080p.GL.WEB-DL.H264.AAC-TAGWEB 2.39GB

[复制链接]
蓝光币
7
发表于 2022-7-31 01:58:10 | 显示全部楼层 |阅读模式


◎标  题 谨慎
◎片  名 Discreet
◎年  代 2017
◎产  地 美国
◎类  别 悬疑 / 惊悚 / 犯罪 / 奇异
◎语  言 英语
◎上映日期 2017-02-11(柏林电影节)
◎IMDb评分 4.3/10 (238人评价)
◎IMDb链接 https://www.imdb.com/title/tt6099416/
◎豆瓣链接 https://movie.douban.com/subject/26962849/
◎片  长 80分钟
◎导  演 特拉维斯·马修斯 Travis Mathews
◎编  剧 特拉维斯·马修斯 Travis Mathews
◎演  员 乔尼·马尔斯 Jonny Mars
       冈冢敦子 Atsuko Okatsuka
       Joy Cunningham Joy Cunningham
       乔丹·阿尔萨斯 Jordan Elsass
       若昂·费德里西 João Federici
◎简  介
  离经叛道的流浪男人亚历克斯(乔尼·马尔斯 Jonny Mars 饰)返回故乡,得知童年凌虐过他的汉子还在世,心里的恶魔再也不受控制,他暗下决心展开复仇。
  1. ##### MediaInfo ######
  2. General
  3. Unique ID                                : 237674232890237761031812600833723958869 (0xB2CE64681689D4113B5FBB45D2098655)
  4. Complete name                            : Discreet.2017.1080p.GL.WEB-DL.H264.AAC-TAGWEB.mkv
  5. Format                                   : Matroska
  6. Format version                           : Version 4
  7. File size                                : 2.39 GiB
  8. Duration                                 : 1 h 19 min
  9. Overall bit rate                         : 4 306 kb/s
  10. Encoded date                             : UTC 2022-03-25 02:08:49
  11. Writing application                      : mkvmerge v66.0.0 ('Josie') 64-bit
  12. Writing library                          : libebml v1.4.2 + libmatroska v1.6.4
  13. Video
  14. ID                                       : 1
  15. Format                                   : AVC
  16. Format/Info                              : Advanced Video Codec
  17. Format profile                           : [email protected]
  18. Format settings                          : CABAC / 5 Ref Frames
  19. Format settings, CABAC                   : Yes
  20. Format settings, Reference frames        : 5 frames
  21. Codec ID                                 : V_MPEG4/ISO/AVC
  22. Duration                                 : 1 h 19 min
  23. Bit rate                                 : 4 178 kb/s
  24. Width                                    : 1 920 pixels
  25. Height                                   : 1 080 pixels
  26. Display aspect ratio                     : 16:9
  27. Frame rate mode                          : Constant
  28. Frame rate                               : 24.000 FPS
  29. Color space                              : YUV
  30. Chroma subsampling                       : 4:2:0
  31. Bit depth                                : 8 bits
  32. Scan type                                : Progressive
  33. Bits/(Pixel*Frame)                       : 0.084
  34. Stream size                              : 2.32 GiB (97%)
  35. Default                                  : Yes
  36. Forced                                   : No
  37. Audio
  38. ID                                       : 2
  39. Format                                   : AAC LC
  40. Format/Info                              : Advanced Audio Codec Low Complexity
  41. Codec ID                                 : A_AAC-2
  42. Duration                                 : 1 h 19 min
  43. Bit rate                                 : 125 kb/s
  44. Channel(s)                               : 2 channels
  45. Channel layout                           : L R
  46. Sampling rate                            : 48.0 kHz
  47. Frame rate                               : 46.875 FPS (1024 SPF)
  48. Compression mode                         : Lossy
  49. Stream size                              : 71.3 MiB (3%)
  50. Default                                  : Yes
  51. Forced                                   : No
  52. Text #1
  53. ID                                       : 3
  54. Format                                   : UTF-8
  55. Codec ID                                 : S_TEXT/UTF8
  56. Codec ID/Info                            : UTF-8 Plain Text
  57. Duration                                 : 1 h 8 min
  58. Bit rate                                 : 18 b/s
  59. Count of elements                        : 458
  60. Stream size                              : 9.36 KiB (0%)
  61. Title                                    : Simplified Chinese
  62. Language                                 : Chinese
  63. Default                                  : Yes
  64. Forced                                   : No
  65. Text #2
  66. ID                                       : 4
  67. Format                                   : UTF-8
  68. Codec ID                                 : S_TEXT/UTF8
  69. Codec ID/Info                            : UTF-8 Plain Text
  70. Duration                                 : 1 h 8 min
  71. Bit rate                                 : 18 b/s
  72. Count of elements                        : 458
  73. Stream size                              : 9.36 KiB (0%)
  74. Title                                    : Traditional Chinese
  75. Language                                 : Chinese
  76. Default                                  : No
  77. Forced                                   : No
  78. Text #3
  79. ID                                       : 5
  80. Format                                   : UTF-8
  81. Codec ID                                 : S_TEXT/UTF8
  82. Codec ID/Info                            : UTF-8 Plain Text
  83. Duration                                 : 1 h 8 min
  84. Bit rate                                 : 23 b/s
  85. Count of elements                        : 478
  86. Stream size                              : 11.6 KiB (0%)
  87. Title                                    : English
  88. Language                                 : English
  89. Default                                  : No
  90. Forced                                   : No
  91. Text #4
  92. ID                                       : 6
  93. Format                                   : UTF-8
  94. Codec ID                                 : S_TEXT/UTF8
  95. Codec ID/Info                            : UTF-8 Plain Text
  96. Duration                                 : 1 h 8 min
  97. Bit rate                                 : 24 b/s
  98. Count of elements                        : 476
  99. Stream size                              : 12.2 KiB (0%)
  100. Title                                    : Indonesian
  101. Language                                 : Indonesian
  102. Default                                  : No
  103. Forced                                   : No
  104. Text #5
  105. ID                                       : 7
  106. Format                                   : UTF-8
  107. Codec ID                                 : S_TEXT/UTF8
  108. Codec ID/Info                            : UTF-8 Plain Text
  109. Duration                                 : 1 h 8 min
  110. Bit rate                                 : 46 b/s
  111. Count of elements                        : 458
  112. Stream size                              : 23.4 KiB (0%)
  113. Title                                    : Thai
  114. Language                                 : Thai
  115. Default                                  : No
  116. Forced                                   : No
  117. Text #6
  118. ID                                       : 8
  119. Format                                   : UTF-8
  120. Codec ID                                 : S_TEXT/UTF8
  121. Codec ID/Info                            : UTF-8 Plain Text
  122. Duration                                 : 1 h 8 min
  123. Bit rate                                 : 25 b/s
  124. Count of elements                        : 478
  125. Stream size                              : 12.6 KiB (0%)
  126. Title                                    : Spanish
  127. Language                                 : Spanish
  128. Default                                  : No
  129. Forced                                   : No
复制代码

















保举请利用qBittorrent,utorrent,transmission等标准BT软件下载!以获得最快速度。奉求保种!





回复

使用道具 举报

懒得打字嘛,点击右侧快捷回复 【右侧内容,后台自定义】
您需要登录后才可以回帖 登录 | 立即加入

本版积分规则

Archiver|小黑屋| 蓝光电影网 |网站地图

Copyright © 2021 Comsenz Inc. Powered by 蓝光电影网

蓝光电影网

本站内容由用户自主分享和转载自互联网,转载目的在于传递更多信息,并不代表本网赞同其观点和对其真实性负责。

如有侵权、违反国家法律政策行为,请联系我们,我们会第一时间及时清除和处理!

举报反馈邮箱:[email protected]

快速回复 返回顶部 返回列表